Парадокс / Paradox (Майкл Херст / Michael Hurst) [2016, США, фантастика, боевик, драма, Sci-Fi, WEB-DL 1080p] ЛД (RecentFilms) + Original Eng

Reply to topic
 
Author Message

Darth_47 ®

Gender: Male

Longevity: 1 year 4 months

Posts: 696

Post 23-Feb-2020 17:46

[Quote]

Парадокс / Paradox
Страна: США
Жанр: фантастика, боевик, драма, Sci-Fi
Год выпуска: 2016
Продолжительность: 01:29:51
Перевод: Любительский (двухголосый закадровый) RecentFilms
Режиссер: Майкл Херст / Michael Hurst
В ролях: Зои Белл, Мэлик Йоба, Адам Хасс, Бьорн Олсен, Брайан Флаккус, Майкл Миллиган , Стив Су, Даррен Бэйли, Джонатан Кэмп, Кортни Комптон-Описание: Группа ученых работает над секретным проектом, который может позволить им путешествовать в будущее на небольшой отрезок времени. Для эксперимента они посылают одного из них ровно на час вперед. По возвращении тот умоляет, чтобы его заперли, потому что в течении этого часа их всех ждет смерть.

-Релиз

Работа над релизом:
Видеоряд найден на rarbgmirror.org
Русская дорожка взята отсюда
Сборка релиза - Darth_47
-Качество видео: WEB-DL 1080p
Формат видео: MKV
Видео: MPEG4 Video (H264) 1920x1080 23.976fps 4977 kbps
Аудио 1: Dolby AC3 48000Hz stereo 192kbps Русский ЛД (RecentFilms)
Аудио 2: Dolby AC3 48000Hz 6ch 384kbps English-

MediaInfo

General
Unique ID                      : 252481406195743685395994126042084555551 (0xBDF2266A49ED0EF9B4602124B8D63B1F)
Complete name                  : Paradox 2016.x264.WEB-DLRip.1080p.Rus.kosmoaelita.mkv
Format                         : Matroska
Format version                 : Version 1
File size                      : 3.56 GiB
Duration                       : 1 h 29 min
Overall bit rate               : 5 666 kb/s
Movie name                     : Paradox.2016.1080p.WEB-DL.DD5.1.H264-FGT
Encoded date                   : UTC 2020-02-23 14:19:22
Writing application            : mkvmerge v2.4.2 ('Oh My God') built on Jan 18 2009 17:30:28
Writing library                : libebml v0.7.7 + libmatroska v0.8.1
Cover                          : Yes
Attachments                    : cover_land.jpg / small_cover.jpg / small_cover_land.jpg / cover.jpg
Video
ID                             : 1
Format                         : AVC
Format/Info                    : Advanced Video Codec
Format profile                 : High@L4
Format settings                : CABAC / 4 Ref Frames
Format settings, CABAC         : Yes
Format settings, Reference fra : 4 frames
Codec ID                       : V_MPEG4/ISO/AVC
Duration                       : 1 h 29 min
Bit rate                       : 4 977 kb/s
Width                          : 1 920 pixels
Height                         : 1 080 pixels
Display aspect ratio           : 16:9
Frame rate mode                : Constant
Frame rate                     : 23.976 FPS
Color space                    : YUV
Chroma subsampling             : 4:2:0
Bit depth                      : 8 bits
Scan type                      : Progressive
Bits/(Pixel*Frame)             : 0.100
Stream size                    : 3.12 GiB (88%)
Title                          : kosmoaelita
Language                       : English
Default                        : Yes
Forced                         : No
Color range                    : Limited
Color primaries                : BT.709
Transfer characteristics       : BT.709
Matrix coefficients            : BT.709
Audio #1
ID                             : 2
Format                         : AC-3
Format/Info                    : Audio Coding 3
Commercial name                : Dolby Digital
Codec ID                       : A_AC3
Duration                       : 1 h 29 min
Bit rate mode                  : Constant
Bit rate                       : 192 kb/s
Channel(s)                     : 2 channels
Channel layout                 : L R
Sampling rate                  : 48.0 kHz
Frame rate                     : 31.250 FPS (1536 SPF)
Compression mode               : Lossy
Stream size                    : 123 MiB (3%)
Title                          : Русский ЛД (RecentFilms)
Language                       : Russian
Service kind                   : Complete Main
Default                        : Yes
Forced                         : No
Audio #2
ID                             : 3
Format                         : AC-3
Format/Info                    : Audio Coding 3
Commercial name                : Dolby Digital
Codec ID                       : A_AC3
Duration                       : 1 h 29 min
Bit rate mode                  : Constant
Bit rate                       : 384 kb/s
Channel(s)                     : 6 channels
Channel layout                 : L R C LFE Ls Rs
Sampling rate                  : 48.0 kHz
Frame rate                     : 31.250 FPS (1536 SPF)
Compression mode               : Lossy
Stream size                    : 247 MiB (7%)
Language                       : English
Service kind                   : Complete Main
Default                        : No
Forced                         : No
Menu
00:00:00.000                   : en:Opening Sequence
00:06:06.000                   : en:Trouble In Paradise
00:11:40.000                   : en:Do Your Best Work
00:18:20.000                   : en:Not Where, But When
00:23:34.000                   : en:Bad News
00:29:09.000                   : en:One Of Us
00:35:01.000                   : en:Never Considered The 'Should'
00:40:39.000                   : en:He Was Smelling Himself
00:46:25.000                   : en:Your Cover's Blown
00:53:21.000                   : en:We Can't Change Anything
00:58:51.000                   : en:Max Devlin
01:04:34.000                   : en:Press The Red Button
01:10:21.000                   : en:You're Him
01:17:06.000                   : en:Can't Cause A Paradox
01:21:49.000                   : en:You Can't Escape Fate
01:27:56.000                   : en:End Credits

Скриншоты










[Profile] [PM]
Display posts:    
Reply to topic

Current time is: 28-Sep 05:33

All times are UTC + 3



You cannot post new topics in this forum
You cannot reply to topics in this forum
You cannot edit your posts in this forum
You cannot delete your posts in this forum
You cannot vote in polls in this forum
You cannot attach files in this forum
You cannot download files in this forum