Экзо-мен / Exo-Man (Ричард Ирвинг) [1977, США, фантастика, TVRip] [TV-Pilot] (АО)

Reply to topic
DL-List and Torrent activity
Size:  999 MB   |    Registered:  7 months 15 days   |    Completed:  1 time

Seeder not seen: 14 hours

 
   
 
 
 
Author Message

Трамвай-фильм ®

Gender: Male

Longevity: 6 years 1 month

Posts: 1864

Location: Россия

Post 15-Feb-2020 23:58

[Quote]

Экзо-мен / Exo-Man / TV-Pilot
Страна: США
Жанр: фантастика
Год выпуска: 1977
Продолжительность: 01:35:02
Перевод: Авторский (одноголосый)
Режиссер: Ричард Ирвинг
В ролях: Дэвид Экройд, Энн Шедин, Эй Мартинез, Хосе Феррер, Джек Колвин, Гарри Морган, Дональд Моффет, Кевин МакКарти, Ричард Нарита
Описание: Ученый-физик, покалеченный боссом мафии, изобретает экзо-склетет, и начинает мстить.
Доп. информация: Пилотная серия. Сериал по ней так и не вышел.


Качество видео: TVRip
Видео: Xvid, 712x480, 29,97fps, 1240kbps
Аудио 1: AC3, 48000Hz, stereo, 192kbps
Аудио 2: AC3, 48000Hz, stereo, 192kbps

MediaInfo

Общее
Уникальный идентификатор : 177308196267175099683435518962117309933 (0x856451035DEA5A9EBBD56A6CFC9EF5ED)
Полное имя : N:\BD-DISC\Exo-Man 1977.XviD.VHSRip.Rus.kosmoaelita.mkv
Формат : Matroska
Версия формата : Version 4
Размер файла : 1,10 Гбайт
Продолжительность : 1 ч. 35 м.
Общий поток : 1657 Кбит/сек
Название фильма : Экзо-мен / Exo-Man / 1977 / kosmoaelita
Дата кодирования : UTC 2020-02-16 04:52:52
Программа кодирования : mkvmerge v6.6.0 ('The Edge Of The In Between') built on Dec 1 2013 17:55:00
Библиотека кодирования : libebml v1.3.0 + libmatroska v1.4.1
Attachments : poster.jpg
Видео
Идентификатор : 1
Формат : MPEG-4 Visual
Профиль формата : Simple@L3
Параметр BVOP формата : Нет
Параметр QPel формата : Нет
Параметр GMC формата : Без точки перехода
Параметр матрицы формата : Default (H.263)
Идентификатор кодека : V_MS/VFW/FOURCC / XVID
Идентификатор кодека/Подсказка : XviD
Продолжительность : 1 ч. 35 м.
Битрейт : 1240 Кбит/сек
Ширина : 712 пикселей
Высота : 480 пикселей
Соотношение сторон : 4:3
Режим частоты кадров : Постоянный
Частота кадров : 29,970 (30000/1001) кадров/сек
Цветовое пространство : YUV
Субдискретизация насыщенности : 4:2:0
Битовая глубина : 8 бит
Тип развёртки : Прогрессивная
Метод сжатия : С потерями
Бит/(Пиксели*Кадры) : 0.121
Размер потока : 842 Мбайт (75%)
Заголовок : http://kosmoaelita.com/viewtopic.php?t=3042
Библиотека кодирования : XviD 1.1.2 (UTC 2006-11-01)
Default : Да
Forced : Нет
Аудио #1
Идентификатор : 2
Формат : AC-3
Формат/Информация : Audio Coding 3
Коммерческое название : Dolby Digital
Идентификатор кодека : A_AC3
Продолжительность : 1 ч. 35 м.
Вид битрейта : Постоянный
Битрейт : 192 Кбит/сек
Каналы : 2 канала
ChannelLayout : L R
Частота : 48,0 КГц
Частота кадров : 31,250 кадров/сек (1536 SPF)
Метод сжатия : С потерями
Размер потока : 130 Мбайт (12%)
Заголовок : Русский АО (Трамвай-фильм) - для kosmoaelita.com
Язык : Russian
ServiceKind/String : Complete Main
Default : Да
Forced : Нет
Аудио #2
Идентификатор : 3
Формат : AC-3
Формат/Информация : Audio Coding 3
Коммерческое название : Dolby Digital
Идентификатор кодека : A_AC3
Продолжительность : 1 ч. 35 м.
Вид битрейта : Постоянный
Битрейт : 192 Кбит/сек
Каналы : 2 канала
ChannelLayout : L R
Частота : 48,0 КГц
Частота кадров : 31,250 кадров/сек (1536 SPF)
Метод сжатия : С потерями
Размер потока : 130 Мбайт (12%)
Язык : English
ServiceKind/String : Complete Main
Default : Нет
Forced : Нет

Скриншоты




Файл дополнительно залит на ОБЛАКО
Exo.Man.Tramvai.film.avi.torrent
Torrent: Registered [ 2020-02-15 23:58 ]

Download .torrent

Download

20 KB

Status: checked
Completed: 1 times
Size: 999 MB
 
[Profile] [PM]
Display posts:    
Reply to topic

Current time is: 01-Oct 15:30

All times are UTC + 3



You cannot post new topics in this forum
You cannot reply to topics in this forum
You cannot edit your posts in this forum
You cannot delete your posts in this forum
You cannot vote in polls in this forum
You cannot attach files in this forum
You can download files in this forum