Мир животных / The Animal World (Ирвин Аллен) [1956 г., документальный, DVDRip]

Reply to topic
DL-List and Torrent activity
Size:  1.46 GB   |    Registered:  6 years 6 months   |    Completed:  4 times

Seeder not seen: 3 years 7 months

 
   
 
 
 
Author Message

admin ®

Gender: Male

Longevity: 6 years 8 months

Posts: 4725

Location: Україна

Post 30-Oct-2012 17:15

[Quote]

Мир животных / The Animal World
Год выпуска: 1956
Страна: США
Жанр: документальный
Продолжительность: 01:21:43
Перевод: Отсутствует
Режиссер: Ирвин Аллен
В ролях: Джон Сторм, Теодор фон Илтц
Описание: Увлекательнейший рассказ о животных, как современных, так и исчезнувших миллионы лет назад.
To be frank, I've never seen the movie "The Animal World" but as a kid, I inherited the View-Master reels, and later the "Prehistoric Animals" packet, from my older brother... Boy! Did I wish I could see the movie one day! Being a monster movie buff, I bought the movie "The Black Scorpion" on DVD lately and to my surprise, I found out that the entire "Dinosaur Sequence" animated by Willis O'Brien and Ray Harryhausen from "Animal World" was included as an extra feature on it! Wow! I finally saw it! And it was worth the wait... in part. I'm giving it a rating of 8/10 because the sequence is composed of superb stop-motion animation by two great masters, but also of cheesy looking dinosaur puppets... Anyway, it's great fun to look at!

Качество: DVDRip
Формат: MKV
Видео: x264, 2356 кбит/с, 720x540, 23/976 к/с, crf=22
Аудио: Английский (AC3, 2 ch, 192 Кбит/с)


Релиз

Рип с ДВД5 - sasha20072007
Для Украины: рип и оригинальный ДВД дополнительно залиты в файлохранилище
Для удаления и добавления дорожек в mkv используйте бесплатную mkvmerge GUI 5.80

Дополнительно

слоган «2 Billion Years in the Making!»
Also Known As (AKA)
Die Tierwelt ruft West Germany
Eläinten maailma Finland
Hamenos kosmos Greece (transliterated ISO-LATIN-1 title)
Il mondo è meraviglioso Italy
O Mundo Animal Portugal (imdb display title)

Рецензия

MediaInfo

Общее
Уникальный идентификатор : 215245847266234456946592550287425824501 (0xA1EED79EB64B41669BF44737E81A66F5)
Полное имя : F:\The Animal World 1956.x264.DVDRip.sasha20072007.mkv
Формат : Matroska
Версия формата : Version 4 / Version 2
Размер файла : 1,46 Гбайт
Продолжительность : 1 ч. 21 м.
Общий поток : 2550 Кбит/сек
Дата кодирования : UTC 2010-02-22 21:41:31
Программа кодирования : mkvmerge v5.8.0 ('No Sleep / Pillow') built on Sep 30 2012 10:57:14
Библиотека кодирования : libebml v1.3.0 + libmatroska v1.4.0
Attachment : Yes / Yes / Yes
Видео
Идентификатор : 1
Формат : AVC
Формат/Информация : Advanced Video Codec
Профиль формата : High@L4.1
Параметр CABAC формата : Да
Параметр ReFrames формата : 8 кадров
Идентификатор кодека : V_MPEG4/ISO/AVC
Продолжительность : 1 ч. 21 м.
Битрейт : 2356 Кбит/сек
Ширина : 720 пикселей
Высота : 540 пикселей
Соотношение сторон : 4:3
Режим частоты кадров : Постоянный
Частота кадров : 23,976 кадра/сек
Цветовое пространство : YUV
Субдискретизация насыщенности : 4:2:0
Битовая глубина : 8 бит
Тип развёртки : Прогрессивная
Бит/(Пиксели*Кадры) : 0.253
Размер потока : 1,32 Гбайт (90%)
Библиотека кодирования : x264 core 125 r2208 d9d2288
Настройки программы : cabac=1 / ref=8 / deblock=1:-1:0 / analyse=0x3:0x133 / me=umh / subme=11 / psy=1 / psy_rd=1.00:0.15 / mixed_ref=1 / me_range=24 / chroma_me=1 / trellis=2 / 8x8dct=1 / cqm=0 / deadzone=21,11 / fast_pskip=1 / chroma_qp_offset=-3 / threads=4 / lookahead_threads=1 / sliced_threads=0 / nr=0 / decimate=1 / interlaced=0 / bluray_compat=0 / constrained_intra=0 / bframes=8 / b_pyramid=2 / b_adapt=2 / b_bias=0 / direct=3 / weightb=1 / open_gop=0 / weightp=2 / keyint=220 / keyint_min=22 / scenecut=40 / intra_refresh=0 / rc_lookahead=60 / rc=2pass / mbtree=1 / bitrate=2356 / ratetol=1.0 / qcomp=0.60 / qpmin=0 / qpmax=69 / qpstep=4 / cplxblur=20.0 / qblur=0.5 / vbv_maxrate=17500 / vbv_bufsize=14000 / nal_hrd=none / ip_ratio=1.40 / aq=1:0.80
Default : Да
Forced : Нет
Основные цвета : BT.601 NTSC
Характеристики трансфера : BT.601
Коэффициенты матрицы : BT.601
Аудио
Идентификатор : 2
Формат : AC-3
Формат/Информация : Audio Coding 3
Расширение режима : CM (complete main)
Параметр Endianness формата : Big
Идентификатор кодека : A_AC3
Продолжительность : 1 ч. 21 м.
Вид битрейта : Постоянный
Битрейт : 192 Кбит/сек
Каналы : 2 канала
Расположение каналов : Front: L R
Частота : 48,0 КГц
Битовая глубина : 16 бит
Метод сжатия : С потерями
Размер потока : 112 Мбайт (8%)
Язык : English
Default : Да
Forced : Нет
Меню
00:00:00.000 : :Chapter 01
00:10:00.000 : :Chapter 02
00:20:00.000 : :Chapter 03
00:30:00.000 : :Chapter 04
00:40:00.000 : :Chapter 05
00:50:00.000 : :Chapter 06
01:00:00.000 : :Chapter 07
01:10:00.000 : :Chapter 08
01:20:00.000 : :Chapter 09

Скриншоты



The Animal World 1956.x264.DVDRip.sasha20072007.mkv.torrent
Torrent: Registered [ 2012-10-30 17:15 ]

Download .torrent

Download

59 KB

Status: checked
Completed: 4 times
Size: 1.46 GB
 
[Profile] [PM]
Display posts:    
Reply to topic

Current time is: 27-May 07:01

All times are UTC + 3



You cannot post new topics in this forum
You cannot reply to topics in this forum
You cannot edit your posts in this forum
You cannot delete your posts in this forum
You cannot vote in polls in this forum
You cannot attach files in this forum
You can download files in this forum