Операция Судный День / Doomsday Device / Pandora's Box (Кристиан Сесма / Christian Sesma) [2017, США, фантастика, BDRip-1080p] АО (Horror Maker), ЛД (Синема УС )

Reply to topic
 
Author Message

kosmoaelita ®

Gender: Male

Longevity: 8 years

Posts: 1642

Post 26-Jan-2020 22:59

[Quote]

Операция Судный День / Doomsday Device / Pandora's Box
Страна: США,Cinetel Films, Ton of Hats
Жанр: фантастика
Год выпуска: 2017
Продолжительность: 01:24:55
Перевод 1: Авторский (одноголосый) Horror Maker
Перевод 2: Любительский (двухголосый) Синема УС (без рекламы)
Режиссер: Кристиан Сесма / Christian Sesma
В ролях:
Corin Nemec ... Cole
Mike Hatton ... Mack
Robert Carradine ... Alexander Baird
Jon Mack Jon Mack ... Kora
Mary Christina Brown ... Kana
Jessica Uberuaga ... Sarah
Jose Rosete ... Director Pena
Nick Vallelonga ... Rossetti
Samantha Robinson ... Courtney
Rest of cast listed alphabetically:
James M. Black ... Yakuza (as James Moten-Black)
Ava Scarlett Brenner ... Jenny
Noa Brenner ... Jesse
Andres Castillo ... Sanchez
Johnny Rey Diaz ... Max Tovar
Viktoriya Dov ... Mara
Описание: После смерти своего отца, Ник Саймон возвращается домой. Но копаясь в отцовских бумагах, они с оценщиком случайно включают древнее шумерское устройство судного дня. И что хуже всего, его крадут. И теперь посреди всевозможных катастроф Ник и Энджи должны найти и отключить украденное устройство. Судьбы мира висят на волоске, удастся ли им всё успеть?

Релиз

Качество видео: BDRip-1080p
Формат: MKV
Видео: x264, 12000 кбит/с, 1920x1080, 23.976 к/с
Аудио 1: Русский АО (AC3, 6 ch, 448 Кбит/с)
Аудио 2: Русский ЛД (AC3, 2 ch, 192 Кбит/с)
Аудио 3: Английский (AC3, 6 ch, 640 Кбит/с)
Субтитры : Английские, испанские
Работа над релизом:
Релиз kosmoaelita.
Видеоряд найден на rarbg2018.org/
Перевод с англ. субтитров и озвучка по заказу kosmoaelita - Horror Maker
Перевод увидел свет благодаря сборам от - CROM@G, kosmoaelita, Joker777, snorrinort, alien_egg, pompilius, 4st
Синхронизация и удаление рекламы дорожки от Синема УС - kosmoaelita



Пример авторского перевода

Дополнительно

Also Known As (AKA)
(original title) Doomsday Device
Brazil Máquina do Apocalipse
Bulgaria (Bulgarian title) Свещеният камък
France Opération destruction
Germany (DVD title) Final Storm - Der Untergang der Welt
Portugal A Pedra Sagrada
Spain La piedra sagrada
USA Pandora's Box

Отзывы

MediaInfo

Общее
Уникальный идентификатор : 244993375883115041958517273991308205100 (0xB85002045B5D42058CD4E2F2B2515C2C)
Полное имя : Doomsday Device 2017.x264.BDRip.1080p.2xRus.kosmoaelita.mkv
Формат : Matroska
Версия формата : Version 4
Размер файла : 8,05 Гбайт
Продолжительность : 1 ч. 24 м.
Общий поток : 13,6 Мбит/сек
Название фильма : Doomsday Device aka Pandora's Box / 2017 / Релиз kosmoaelita.com
Дата кодирования : UTC 2020-03-22 15:21:32
Программа кодирования : mkvmerge v6.6.0 ('The Edge Of The In Between') built on Dec 1 2013 17:55:00
Библиотека кодирования : libebml v1.3.0 + libmatroska v1.4.1
Attachments : POSTER.jpg
Видео
Идентификатор : 1
Формат : AVC
Формат/Информация : Advanced Video Codec
Профиль формата : High@L4.1
Настройки формата : CABAC / 4 Ref Frames
Параметр CABAC формата : Да
Параметр RefFrames формата : 4 кадра
Идентификатор кодека : V_MPEG4/ISO/AVC
Продолжительность : 1 ч. 24 м.
Битрейт : 12,0 Мбит/сек
Ширина : 1920 пикселей
Высота : 1080 пикселей
Соотношение сторон : 16:9
Режим частоты кадров : Постоянный
Частота кадров : 23,976 (24000/1001) кадра/сек
Цветовое пространство : YUV
Субдискретизация насыщенности : 4:2:0
Битовая глубина : 8 бит
Тип развёртки : Прогрессивная
Бит/(Пиксели*Кадры) : 0.242
Размер потока : 7,13 Гбайт (89%)
Заголовок : http://kosmoaelita.com/viewtopic.php?t=3025
Библиотека кодирования : x264 core 157 r2935 545de2f
Настройки программы : cabac=1 / ref=4 / deblock=1:-3:-3 / analyse=0x3:0x133 / me=umh / subme=10 / psy=1 / psy_rd=1.00:0.00 / mixed_ref=1 / me_range=32 / chroma_me=1 / trellis=2 / 8x8dct=1 / cqm=0 / deadzone=21,11 / fast_pskip=0 / chroma_qp_offset=-2 / threads=12 / lookahead_threads=3 / sliced_threads=0 / nr=0 / decimate=0 / interlaced=0 / bluray_compat=0 / constrained_intra=0 / bframes=16 / b_pyramid=2 / b_adapt=2 / b_bias=0 / direct=3 / weightb=1 / open_gop=0 / weightp=2 / keyint=240 / keyint_min=24 / scenecut=40 / intra_refresh=0 / rc_lookahead=60 / rc=crf / mbtree=0 / crf=17.0 / qcomp=0.60 / qpmin=0 / qpmax=69 / qpstep=4 / vbv_maxrate=62500 / vbv_bufsize=78125 / crf_max=0.0 / nal_hrd=none / filler=0 / ip_ratio=1.40 / pb_ratio=1.30 / aq=2:1.00
Язык : English
Default : Да
Forced : Нет
Цветовой диапазон : Limited
Основные цвета : BT.709
Характеристики трансфера : BT.709
Коэффициенты матрицы : BT.709
Аудио #1
Идентификатор : 2
Формат : AC-3
Формат/Информация : Audio Coding 3
Коммерческое название : Dolby Digital
Идентификатор кодека : A_AC3
Продолжительность : 1 ч. 24 м.
Вид битрейта : Постоянный
Битрейт : 448 Кбит/сек
Каналы : 6 каналов
ChannelLayout : L R C LFE Ls Rs
Частота : 48,0 КГц
Частота кадров : 31,250 кадров/сек (1536 SPF)
Метод сжатия : С потерями
Размер потока : 272 Мбайт (3%)
Заголовок : Русский АО (Horror Maker) - для kosmoaelita.com
Язык : Russian
ServiceKind/String : Complete Main
Default : Да
Forced : Нет
Аудио #2
Идентификатор : 3
Формат : AC-3
Формат/Информация : Audio Coding 3
Коммерческое название : Dolby Digital
Идентификатор кодека : A_AC3
Продолжительность : 1 ч. 24 м.
Вид битрейта : Постоянный
Битрейт : 192 Кбит/сек
Каналы : 2 канала
ChannelLayout : L R
Частота : 48,0 КГц
Частота кадров : 31,250 кадров/сек (1536 SPF)
Метод сжатия : С потерями
Размер потока : 117 Мбайт (1%)
Заголовок : Русский ЛД (Синема УС) - без рекламы
Язык : Russian
ServiceKind/String : Complete Main
Default : Нет
Forced : Нет
Аудио #3
Идентификатор : 4
Формат : AC-3
Формат/Информация : Audio Coding 3
Коммерческое название : Dolby Digital
Идентификатор кодека : A_AC3
Продолжительность : 1 ч. 24 м.
Вид битрейта : Постоянный
Битрейт : 640 Кбит/сек
Каналы : 6 каналов
ChannelLayout : L R C LFE Ls Rs
Частота : 48,0 КГц
Частота кадров : 31,250 кадров/сек (1536 SPF)
Метод сжатия : С потерями
Размер потока : 389 Мбайт (5%)
Язык : English
ServiceKind/String : Complete Main
Default : Нет
Forced : Нет
Текст #1
Идентификатор : 5
Формат : UTF-8
Идентификатор кодека : S_TEXT/UTF8
Идентификатор кодека/Информация : UTF-8 Plain Text
Язык : English
Default : Нет
Forced : Нет
Текст #2
Идентификатор : 6
Формат : VobSub
Режим смешивания : zlib
Идентификатор кодека : S_VOBSUB
Идентификатор кодека/Информация : Picture based subtitle format used on DVDs
Язык : English
Default : Нет
Forced : Нет
Текст #3
Идентификатор : 7
Формат : VobSub
Режим смешивания : zlib
Идентификатор кодека : S_VOBSUB
Идентификатор кодека/Информация : Picture based subtitle format used on DVDs
Язык : Spanish
Default : Нет
Forced : Нет
Меню
00:00:00.000 : :Chapter 1
00:03:26.081 : :Chapter 2
00:12:26.329 : :Chapter 3
00:21:38.881 : :Chapter 4
00:31:11.787 : :Chapter 5
00:39:03.258 : :Chapter 6
00:49:20.833 : :Chapter 7
00:55:28.784 : :Chapter 8
01:00:47.519 : :Chapter 9
01:10:51.497 : :Chapter 10
01:15:49.086 : :Chapter 11
01:20:53.349 : :Chapter 12

Скриншоты














Скринлист

Файл дополнительно залит на ОБЛАКО


Last edited by kosmoaelita on 2020-03-22 22:16; edited 8 times in total
[Profile] [PM]

kosmoaelita ®

Gender: Male

Longevity: 8 years

Posts: 1642

Post 22-Mar-2020 21:31 (after 1 month 26 days)

[Quote]

Замена на BDRip-1080p
Добавлен перевод от Синема УС (без рекламы)
[Profile] [PM]
Display posts:    
Reply to topic

Current time is: 25-Sep 21:29

All times are UTC + 3



You cannot post new topics in this forum
You cannot reply to topics in this forum
You cannot edit your posts in this forum
You cannot delete your posts in this forum
You cannot vote in polls in this forum
You cannot attach files in this forum
You cannot download files in this forum