Чудовище Хайгейтских прудов / The Monster of Highgate Ponds (Альберто Кавальканти) [1961, Великобритания, фантастика, приключения, детский, DVDRip] АО (Трамвай-фильм)

Reply to topic
DL-List and Torrent activity
Size:  678 MB   |    Registered:  24 days   |    Completed:  0 times

Seeder not seen: 21 day

 
   
 
 
 
Author Message

Трамвай-фильм ®

Gender: Male

Longevity: 5 years 6 months

Posts: 1797

Location: Россия

Post 25-Jan-2020 18:29

[Quote]

Чудовище Хайгейтских прудов / The Monster of Highgate Ponds
Страна: Великобритания, Halas and Batchelor Cartoon Films
Жанр: фантастика, приключения, детский
Год выпуска: 1961
Продолжительность: 00:57:55
Перевод: Авторский (одноголосый) Трамвай-фильм
Cубтитры: нет
Режиссер: Альберто Кавальканти
В ролях: Рой Висенте, Рональд Ховард, Рэйчел Клэй, Майкл Вэйд, Терри Рэйвен, Фредерик Пайпер, Майкл Бальфур, Берил Кук
Описание: Однажды дядя Дик привозит в подарок своему племяннику Дэвиду странное яйцо, полученное им от вождя племени охотников на Малайи. Вскоре из него вылупляется маленький, но очень прожорливый дракончик...
Доп. информация: CFF Collection: Volume 3 - Weird Adventures.
Перед просмотром фильма не плохо бы ознакомиться с английской денежной системой того времени, чтобы знать что такое полукрона или бобы (это денежные единицы)
Что мы имеем по студии CFF
Полностью диск "Страшные истории", включающий фильмы: "Человек из Ниоткуда", "Призраки недр" и "Из Темноты"
Полностью Диск "Космические истории", включающий в себя фильмы: "Кадоинг", "Сверхзвуковая тарелка" и "Блестящий шар"
Так же есть еще "Странные приключения", включает фильмы: "Мальчик, который стал жёлтым", "Машина времени профессора Вагстаффа" (она же A Hitch in Time) и собственно этот фильм- "Чудовище Хайгейтских прудов"
Качество видео: DVDRip
Видео: 640x480 (1.33:1), 23.976 fps, XviD build 50 ~1220 kbps avg
Аудио 1: AC3, 48000Hz, stereo, 192kbps
Аудио 2: AC3, 48000Hz, stereo, 192kbps


Работа над релизом:


С русским переводом:

MediaInfo

Общее
Уникальный идентификатор : 213102678175938850525281734896371386707 (0xA0521539C637D2179948D6D4BC604953)
Полное имя : N:\The Monster of Highgate Ponds 1961.XviD.DVDRip.Rus.kosmoaelita.mkv
Формат : Matroska
Версия формата : Version 4
Размер файла : 678 Мбайт
Продолжительность : 57 м. 54 с.
Общий поток : 1637 Кбит/сек
Название фильма : Чудовище Хайгейтских прудов / The Monster of Highgate Ponds / 1961 / Релиз kosmoaelita
Дата кодирования : UTC 2020-01-27 20:38:56
Программа кодирования : mkvmerge v6.6.0 ('The Edge Of The In Between') built on Dec 1 2013 17:55:00
Библиотека кодирования : libebml v1.3.0 + libmatroska v1.4.1
Attachments : poster.jpg
Видео
Идентификатор : 1
Формат : MPEG-4 Visual
Профиль формата : Advanced Simple@L5
Настройки формата : BVOP1 / Custom Matrix
Параметр BVOP формата : 1
Параметр QPel формата : Нет
Параметр GMC формата : Без точки перехода
Параметр матрицы формата : Выборочная
Идентификатор кодека : V_MS/VFW/FOURCC / XVID
Идентификатор кодека/Подсказка : XviD
Продолжительность : 57 м. 54 с.
Битрейт : 1220 Кбит/сек
Ширина : 640 пикселей
Высота : 480 пикселей
Соотношение сторон : 4:3
Режим частоты кадров : Постоянный
Частота кадров : 23,976 (23976/1000) кадра/сек
Цветовое пространство : YUV
Субдискретизация насыщенности : 4:2:0
Битовая глубина : 8 бит
Тип развёртки : Прогрессивная
Метод сжатия : С потерями
Бит/(Пиксели*Кадры) : 0.166
Размер потока : 506 Мбайт (75%)
Заголовок : http://kosmoaelita.com/viewtopic.php?t=3023
Библиотека кодирования : XviD 1.2.1 (UTC 2008-12-04)
Default : Да
Forced : Нет
Аудио #1
Идентификатор : 2
Формат : AC-3
Формат/Информация : Audio Coding 3
Коммерческое название : Dolby Digital
Идентификатор кодека : A_AC3
Продолжительность : 57 м. 54 с.
Вид битрейта : Постоянный
Битрейт : 192 Кбит/сек
Каналы : 2 канала
ChannelLayout : L R
Частота : 48,0 КГц
Частота кадров : 31,250 кадров/сек (1536 SPF)
Метод сжатия : С потерями
Размер потока : 79,5 Мбайт (12%)
Заголовок : Русский АО (Трамвай-фильм) - для kosmoaelita
Язык : Russian
ServiceKind/String : Complete Main
Default : Да
Forced : Нет
Аудио #2
Идентификатор : 3
Формат : AC-3
Формат/Информация : Audio Coding 3
Коммерческое название : Dolby Digital
Идентификатор кодека : A_AC3
Продолжительность : 57 м. 54 с.
Вид битрейта : Постоянный
Битрейт : 192 Кбит/сек
Каналы : 2 канала
ChannelLayout : L R
Частота : 48,0 КГц
Частота кадров : 31,250 кадров/сек (1536 SPF)
Метод сжатия : С потерями
Размер потока : 79,5 Мбайт (12%)
Язык : English
ServiceKind/String : Complete Main
Default : Нет
Forced : Нет

Скриншоты




Скринлист

cd Рип дополнительно залит на mail.ru cd2
The Monster of Highgate Ponds 1961.XviD.DVDRip.Rus.kosmoaelita.mkv.torrent
Torrent: Registered [ 2020-01-27 23:43 ]

Download .torrent

Download

13 KB

Status: checked
Completed: 0 times
Size: 678 MB
 
[Profile] [PM]

kosmoaelita

Gender: Male

Longevity: 7 years 5 months

Posts: 1299

Post 27-Jan-2020 09:09 (after 1 day 14 hours)

[Quote]

Трамвай, я все понимаю... но на 10:33 пикающий сигнал от мобилки можно было и удалить... смайлик-


Last edited by kosmoaelita on 2020-01-27 23:58; edited 1 time in total
[Profile] [PM]

CROM@G

Gender: Male

Longevity: 4 years 5 months

Posts: 3042

Location: Прибалтика

Post 27-Jan-2020 09:25 (after 15 minutes)

[Quote]

под столом под столом под столом
[Profile] [PM]

Трамвай-фильм ®

Gender: Male

Longevity: 5 years 6 months

Posts: 1797

Location: Россия

Post 27-Jan-2020 19:27 (after 10 hours)

[Quote]

25952Трамвай, я все понимаю... но на 10:33 пикающий сигнал от мобилки уже бы можно было удалить как-то... смайлик-
Ёлки и правда, я думал что откусил звонок целиком.
Кстати о фильме, что значит 1960-е, папаша с дядей курят в присутствии детей; дядя просит поцелуя от племянницы, когда она хочет пожать ему руку; ну и напоследок
бедного ящера напоили алкоголем, от чего у него глаза по кругу пошли
Сегодня этот фильм бы не пропустила цензура.
[Profile] [PM]

kosmoaelita

Gender: Male

Longevity: 7 years 5 months

Posts: 1299

Post 27-Jan-2020 23:43 (after 4 hours)

[Quote]

Перезалито без звуков "из будущего"
[Profile] [PM]

CROM@G

Gender: Male

Longevity: 4 years 5 months

Posts: 3042

Location: Прибалтика

Post 28-Jan-2020 02:49 (after 3 hours)

[Quote]

bj bj
[Profile] [PM]

Трамвай-фильм ®

Gender: Male

Longevity: 5 years 6 months

Posts: 1797

Location: Россия

Post 28-Jan-2020 17:00 (after 14 hours)

[Quote]

25969Перезалито без звуков "из будущего"
Дякую, вЫправлюся.
[Profile] [PM]
Display posts:    
Reply to topic

Current time is: 21-Feb 14:57

All times are UTC + 3



You cannot post new topics in this forum
You cannot reply to topics in this forum
You cannot edit your posts in this forum
You cannot delete your posts in this forum
You cannot vote in polls in this forum
You cannot attach files in this forum
You can download files in this forum