Розовая Чикита / Розовая Чекита / The Pink Chiquitas (Энтони Карри) [1987 г., Фантастика, комедия, ужасы, DVDRip] ПД (ТВ+)

Reply to topic
DL-List and Torrent activity
Size:  817 MB   |    Registered:  7 years   |    Completed:  13 times

Seeder not seen: 7 months 2 days

 
   
 
 
 
Author Message

admin ®

Gender: Male

Longevity: 7 years 2 months

Posts: 4721

Post 30-Oct-2012 03:45

[Quote]

Розовая Чикита / Розовая Чекита / The Pink Chiquitas
Релиз - kosmoaelita. com
Год выпуска: 1987
Страна: Канада, Mount Pleasant, SC Entertainment
Жанр: Фантастика, комедия, ужасы, трэш
Продолжительность: 01:23:19
Перевод: Профессиональный (двухголосый) ТВ+
Режиссер: Энтони Карри
В ролях: Дон Лейк, Т.Дж. Скотт, Хезер Смит, Фрэнк Сталлоне, Брюс Пайрри, Элизабет Эдвардс, Клаудия Уди, Джон Хемфилл, Лора Робинсон, Синди Валентайн, Джералд Исаак, Diana Platts, Robert Bredin, Шарон Дайер, Peter McBurnie, Kevin Frankoff, Эрта Китт, Harold Bachan, Марлоу Велла, Боб Аарон
Описание: Частный детектив Тони Мареда прибывает в городок Вимсвиль для ликвидации людей босса мафии дона Энчилада.В это время с ревом проносится розовый метеорит и падает в ближайшем лесу.Горожане отправляются на его поиски.В результате все женщины превращаются в сумасшедших секс-амазонок, одержимых целью взять в мире власть в свои руки...Смесь трэша, комедии, мистики с элементами фантастики...
Качество: DVDRip
Формат: AVI
Видео: XviD, 1058 кбит/с, 640x480, 23.976 к/с
Аудио 1: Русский ТВ+ (AC3, 2 ch, 192 Кбит/с)
Аудио 2: Английский (МР3, 2 ch, 112 Кбит/с)


Релиз

Релиз kosmoaelita.com
Рип найден на CG
Русская озвучка - ТВ+ по заказу IVI.RU
Синхронизация русской дорожки - sasha20072007
Для Украины: рип дополнительно залит в файлохранилище
Для удаления и добавления дорожек в mkv используйте бесплатную mkvmerge GUI 5.80

Дополнительно

слоган «These ladies are out of this world!»
рейтинг MPAA детям до 13 лет просмотр не желателен

Рецензия

MediaInfo

Общее
Полное имя : F:\Розовая Чикита The Pink Chiquitas 1987.XviD.DVDRip.kosmoaelita.com.avi
Формат : AVI
Формат/Информация : Audio Video Interleave
Размер файла : 817 Мбайт
Продолжительность : 1 ч. 23 м.
Режим общего битрейта : Переменный
Общий поток : 1371 Кбит/сек
Программа кодирования : VirtualDubMod 1.5.10.3 (build 2550/release)
Библиотека кодирования : VirtualDubMod build 2550/release
Видео
Идентификатор : 0
Формат : MPEG-4 Visual
Профиль формата : Advanced Simple@L5
Параметр BVOP формата : 1
Параметр QPel формата : Нет
Параметр GMC формата : Без точки перехода
Параметр матрицы формата : Выборочная
Идентификатор кодека : XVID
Идентификатор кодека/Подсказка : XviD
Продолжительность : 1 ч. 23 м.
Битрейт : 1058 Кбит/сек
Ширина : 640 пикселей
Высота : 480 пикселей
Соотношение сторон : 4:3
Частота кадров : 23,976 кадра/сек
Цветовое пространство : YUV
Субдискретизация насыщенности : 4:2:0
Битовая глубина : 8 бит
Тип развёртки : Прогрессивная
Метод сжатия : С потерями
Бит/(Пиксели*Кадры) : 0.144
Размер потока : 630 Мбайт (77%)
Библиотека кодирования : XviD 1.2.1 (UTC 2008-12-04)
Аудио #1
Идентификатор : 1
Формат : AC-3
Формат/Информация : Audio Coding 3
Расширение режима : CM (complete main)
Параметр Endianness формата : Big
Идентификатор кодека : 2000
Продолжительность : 1 ч. 23 м.
Вид битрейта : Постоянный
Битрейт : 192 Кбит/сек
Каналы : 2 канала
Расположение каналов : Front: L R
Частота : 48,0 КГц
Битовая глубина : 16 бит
Метод сжатия : С потерями
Размер потока : 114 Мбайт (14%)
Выравнивание : Разделение по промежуткам
Продолжительность промежутка : 42 мс. (1,00 видеокадр)
Время предзагрузки промежутка : 500 мс.
Заголовок : Русский ПД (ТВ+)
Аудио #2
Идентификатор : 2
Формат : MPEG Audio
Версия формата : Version 1
Профиль формата : Layer 3
Режим : Joint stereo
Расширение режима : MS Stereo
Идентификатор кодека : 55
Идентификатор кодека/Подсказка : MP3
Продолжительность : 1 ч. 23 м.
Вид битрейта : Переменный
Битрейт : 104 Кбит/сек
Номинальный битрейт : 112 Кбит/сек
Каналы : 2 канала
Частота : 44,1 КГц
Метод сжатия : С потерями
Размер потока : 62,2 Мбайт (8%)
Выравнивание : Соединение по промежуткам
Продолжительность промежутка : 26 мс. (0,63 видеокадр)
Время предзагрузки промежутка : 183 мс.
Заголовок : English
Библиотека кодирования : LAME3.98r
Настройки программы : -m j -V 4 -q 2 -lowpass 15.6 --abr 112
cd Рип дополнительно залит на ОБЛАКО cd2
Розовая Чикита The Pink Chiquitas 1987.XviD.DVDRip.kosmoaelita.com.avi.torrent
Torrent: Registered [ 2012-10-30 03:45 ]

Download .torrent

Download

32 KB

Status: checked
Completed: 13 times
Size: 817 MB
 


Last edited by admin on 2015-08-24 10:00; edited 2 times in total
[Profile] [PM]

Guest

Gender: Unknown

Post 30-Oct-2012 16:23 (after 12 hours)

[Quote]

Очень интересный фильм, давно искал с переводом. Спасибо! bf
 

admin ®

Gender: Male

Longevity: 7 years 2 months

Posts: 4721

Post 30-Oct-2012 16:50 (after 26 minutes)

[Quote]

Может не так интересный, как прикольный...
[Profile] [PM]
Display posts:    
Reply to topic

Current time is: 22-Nov 11:15

All times are UTC + 3



You cannot post new topics in this forum
You cannot reply to topics in this forum
You cannot edit your posts in this forum
You cannot delete your posts in this forum
You cannot vote in polls in this forum
You cannot attach files in this forum
You can download files in this forum