Кошмарные выходные / Nightmare Weekend (Генри Сала / Henri Sala (as H. Sala) [1986, Великобритания, США, Франция, ужасы, фантастика, BDRip-1080p] ЛО (den904), СТ (chup)

Reply to topic
 
Author Message

kosmoaelita ®

Gender: Male

Longevity: 7 years 10 months

Posts: 1563

Post 11-Jan-2020 00:36

[Quote]

Кошмарные выходные / Nightmare Weekend
Страна: Великобритания, США, Франция
Жанр: ужасы, фантастика
Год выпуска: 1986
Продолжительность: 01:26:01
Перевод: ЛО den904 по субтитрам от chup
Режиссер: Генри Сала / Henri Sala (as H. Sala)
В ролях:
Debbie Laster ... Julie Clingstone
Dale Midkiff ... Ken
Debra Hunter ... Jessica Brake
Lori Lewis ... Annie
Preston Maybank ... Bob
Wellington Meffert ... Edward Brake
Kim Dossin ... Mary-Rose
Andrea Thompson Andrea Thompson ... Linda
Kimberley Stahl ... Pamela
Bruce Morton ... Tony
Karen Mayo-Chandler ... Sue (as Karen Mayo)
Nick James Nick James ... Gary
Robert John Burke ... Dave (as Robert Burke)
Rest of cast listed alphabetically:
Jack Adams
Dean Gates ... Gas Pump Attendant #1
Описание: Профессор Брэйк изобретает машину, способную управлять разумом живых существ, меняя их поведение и характер. Тестировать её на людях Брэйк не спешит, однако у него есть амбициозная ассистентка, которая решает пригласить на профессорскую дачу трёх студенток и тайком провести первые испытания на них.

Качество видео: BDRip-1080p
Формат: MKV
Видео: x264, 9987 кбит/с, 1920x1080, 23.976 к/с
Аудио 1: Русский ЛО (den904) (AC3, 1 ch, 640 Кбит/с)
Аудио 2: Английский (DTS, 1 ch, 768 Кбит/с)
Субтитры : Русские (), английские
Работа над релизом:
Видеоряд найден на rarbg2018.org
Перевод с англ. субтитров по заказу kosmoaelita - chup
Русская озвучка по заказу kosmoaelita - den904
Релиз увидел свет благодаря - Arias, kosmoaelita, pompilius, killer snowman, Joker777



Пример русского перевода

Дополнительно

слоган «A Weekend of Relentless Terror ... Who Will Survive?»
Also Known As (AKA)
(original title) Nightmare Weekend
Brazil Pesadelo no Fim-de-Semana
Poland Koszmarny weekend
Spain (cable TV title) Intriga zombie
Spain (reissue title) Intriga criminal
Spain (reissue title) Fin de semana de pesadilla
West Germany Programmiert zum Töten

Отзывы

Рецензия

MediaInfo

Общее
Уникальный идентификатор : 247859054534808496239637531362244069298 (0xBA77EAE20A752F10A173A7F5A01687B2)
Полное имя : N:\BD-DISC\Nightmare Weekend 1986.x264.BDRip.1080p.Rus.kosmoaelita.mkv
Формат : Matroska
Версия формата : Version 4
Размер файла : 6,99 Гбайт
Продолжительность : 1 ч. 26 м.
Общий поток : 11,6 Мбит/сек
Название фильма : Nightmare Weekend / Кошмарные выходные / 1986 / Релиз kosmoaelita.com
Дата кодирования : UTC 2020-01-30 16:17:19
Программа кодирования : mkvmerge v6.6.0 ('The Edge Of The In Between') built on Dec 1 2013 17:55:00
Библиотека кодирования : libebml v1.3.0 + libmatroska v1.4.1
Attachments : poster.jpg
Видео
Идентификатор : 1
Формат : AVC
Формат/Информация : Advanced Video Codec
Профиль формата : High@L4.1
Настройки формата : CABAC / 4 Ref Frames
Параметр CABAC формата : Да
Параметр RefFrames формата : 4 кадра
Идентификатор кодека : V_MPEG4/ISO/AVC
Продолжительность : 1 ч. 26 м.
Битрейт : 9987 Кбит/сек
Ширина : 1920 пикселей
Высота : 1080 пикселей
Соотношение сторон : 16:9
Режим частоты кадров : Постоянный
Частота кадров : 23,976 (24000/1001) кадра/сек
Цветовое пространство : YUV
Субдискретизация насыщенности : 4:2:0
Битовая глубина : 8 бит
Тип развёртки : Прогрессивная
Бит/(Пиксели*Кадры) : 0.201
Размер потока : 6,00 Гбайт (86%)
Заголовок : http://kosmoaelita.com/viewtopic.php?t=3009
Библиотека кодирования : x264 core 157 r2945 72db437
Настройки программы : cabac=1 / ref=4 / deblock=1:-3:-3 / analyse=0x3:0x133 / me=umh / subme=10 / psy=1 / psy_rd=1.00:0.00 / mixed_ref=1 / me_range=32 / chroma_me=1 / trellis=2 / 8x8dct=1 / cqm=0 / deadzone=21,11 / fast_pskip=0 / chroma_qp_offset=-2 / threads=6 / lookahead_threads=1 / sliced_threads=0 / nr=0 / decimate=0 / interlaced=0 / bluray_compat=0 / constrained_intra=0 / bframes=16 / b_pyramid=2 / b_adapt=2 / b_bias=0 / direct=3 / weightb=1 / open_gop=0 / weightp=2 / keyint=240 / keyint_min=24 / scenecut=40 / intra_refresh=0 / rc_lookahead=60 / rc=crf / mbtree=0 / crf=22.2 / qcomp=0.60 / qpmin=0 / qpmax=69 / qpstep=4 / vbv_maxrate=62500 / vbv_bufsize=78125 / crf_max=0.0 / nal_hrd=none / filler=0 / ip_ratio=1.40 / pb_ratio=1.30 / aq=2:1.00
Язык : English
Default : Да
Forced : Нет
Цветовой диапазон : Limited
Основные цвета : BT.709
Характеристики трансфера : BT.709
Коэффициенты матрицы : BT.709
Аудио #1
Идентификатор : 2
Формат : AC-3
Формат/Информация : Audio Coding 3
Коммерческое название : Dolby Digital
Идентификатор кодека : A_AC3
Продолжительность : 1 ч. 26 м.
Вид битрейта : Постоянный
Битрейт : 640 Кбит/сек
Каналы : 2 канала
ChannelLayout : L R
Частота : 48,0 КГц
Частота кадров : 31,250 кадров/сек (1536 SPF)
Метод сжатия : С потерями
Размер потока : 394 Мбайт (6%)
Заголовок : Русский ЛО (den904) - для kosmoaelita.com
Язык : Russian
ServiceKind/String : Complete Main
Default : Да
Forced : Нет
Аудио #2
Идентификатор : 3
Формат : DTS
Формат/Информация : Digital Theater Systems
Идентификатор кодека : A_DTS
Продолжительность : 1 ч. 26 м.
Вид битрейта : Постоянный
Битрейт : 768 Кбит/сек
Каналы : 1 канал
ChannelLayout : C
Частота : 48,0 КГц
Частота кадров : 93,750 кадра/сек (512 SPF)
Битовая глубина : 24 бит
Метод сжатия : С потерями
Размер потока : 472 Мбайт (7%)
Язык : English
Default : Нет
Forced : Нет
Текст #1
Идентификатор : 4
Формат : UTF-8
Идентификатор кодека : S_TEXT/UTF8
Идентификатор кодека/Информация : UTF-8 Plain Text
Заголовок : форс
Default : Да
Forced : Нет
Текст #2
Идентификатор : 5
Формат : PGS
Режим смешивания : zlib
Идентификатор кодека : S_HDMV/PGS
Идентификатор кодека/Информация : Picture based subtitle format used on BDs/HD-DVDs
Заголовок : Русский (chup) .PGS - для kosmoaelita.com
Язык : Russian
Default : Нет
Forced : Нет
Текст #3
Идентификатор : 6
Формат : UTF-8
Идентификатор кодека : S_TEXT/UTF8
Идентификатор кодека/Информация : UTF-8 Plain Text
Заголовок : Русский (chup) .srt - для kosmoaelita.com
Язык : Russian
Default : Нет
Forced : Нет
Текст #4
Идентификатор : 7
Формат : UTF-8
Идентификатор кодека : S_TEXT/UTF8
Идентификатор кодека/Информация : UTF-8 Plain Text
Язык : English
Default : Нет
Forced : Нет
Текст #5
Идентификатор : 8
Формат : PGS
Режим смешивания : zlib
Идентификатор кодека : S_HDMV/PGS
Идентификатор кодека/Информация : Picture based subtitle format used on BDs/HD-DVDs
Заголовок : SDH
Язык : English
Default : Нет
Forced : Нет
Текст #6
Идентификатор : 9
Формат : UTF-8
Идентификатор кодека : S_TEXT/UTF8
Идентификатор кодека/Информация : UTF-8 Plain Text
Заголовок : SDH (srt)
Язык : English
Default : Нет
Forced : Нет
Меню
00:00:00.000 : :Chapter 1
00:19:50.481 : :Chapter 2
00:38:35.647 : :Chapter 3
00:56:37.978 : :Chapter 4
01:14:43.104 : :Chapter 5

Пример субтитров

1
00:00:05,897 --> 00:00:10,000
Релиз
www.kosmoaelita.com
2
00:00:51,440 --> 00:00:53,110
Приземлились. У нас все готово.
3
00:00:53,440 --> 00:00:54,690
Удачи, парни.
4
00:01:01,780 --> 00:01:03,790
Джули, детка, мы на месте.
5
00:01:05,950 --> 00:01:08,500
- Так чего она хочет?
- Доступ к главному компьютеру.
6
00:01:08,830 --> 00:01:11,080
- Ладно.
- Понял.
7
00:01:18,680 --> 00:01:20,470
Опасность, опасность, опасность!
------------------------
648
01:21:34,640 --> 01:21:37,080
И спасибо, что снова запустил Джорджа.
649
01:22:19,020 --> 01:22:21,750
Кен! Кен!
650
01:22:29,770 --> 01:22:31,480
Кен!
651
01:22:31,540 --> 01:22:34,380
Аварийный программный код:
Защита Джессики.
652
01:22:46,780 --> 01:22:48,900
Нет!

Скриншоты
































Скринлист



Last edited by kosmoaelita on 2020-04-23 23:20; edited 12 times in total
[Profile] [PM]

marsel84

Gender: Male

Longevity: 1 year 9 months

Posts: 73

Post 11-Jan-2020 07:34 (after 6 hours)

[Quote]

Занятно. И описание внушает, и тема сисек раскрыта. Надо в озвучку отдавать.
[Profile] [PM]

CROM@G

Gender: Male

Longevity: 4 years 9 months

Posts: 3333

Location: Прибалтика

Post 11-Jan-2020 07:43 (after 8 minutes)

[Quote]

marsel84, Ради сисег?
[Profile] [PM]

marsel84

Gender: Male

Longevity: 1 year 9 months

Posts: 73

Post 14-Jan-2020 14:56 (after 3 days)

[Quote]

CROM@G,
Главным образом ради сисек
[Profile] [PM]

killer snowman

Gender: Unknown

Longevity: 9 months 27 days

Posts: 40

Post 28-Jan-2020 14:25 (after 13 days)

[Quote]

Раздайте пожалуйста!
[Profile] [PM]

CROM@G

Gender: Male

Longevity: 4 years 9 months

Posts: 3333

Location: Прибалтика

Post 28-Jan-2020 14:29 (after 4 minutes)

[Quote]

killer snowman, Еще озвучка не готова Сегодня Дэн начнет озвучку Как только будет готова сразу же пойдет раздача
[Profile] [PM]

kosmoaelita ®

Gender: Male

Longevity: 7 years 10 months

Posts: 1563

Post 30-Jan-2020 19:23 (after 2 days 4 hours)

[Quote]

Добавлена русская озвучка от den904
Спасибо всем участникам проекта!
[Profile] [PM]
Display posts:    
Reply to topic

Current time is: 13-Jul 23:13

All times are UTC + 3



You cannot post new topics in this forum
You cannot reply to topics in this forum
You cannot edit your posts in this forum
You cannot delete your posts in this forum
You cannot vote in polls in this forum
You cannot attach files in this forum
You cannot download files in this forum