Человек из Ниоткуда / The Man from Nowhere (Джеймс Хилл) [1975, Великобритания, приключения, DVDRip-AVC] [Scary Stories] АО (Трамвай-фильм)

Reply to topic
DL-List and Torrent activity
Size:  1002 MB   |    Registered:  16 days   |    Completed:  4 times

Seeders:

Username ULR UL DL UL speed DL speed
Трамвай-фильм ® 0.7 699094396667 MB 0- 0- 0-
killer snowman 0.2 166985728159 MB 0- 0- 0-
shows data only for the current session
 
   
 
 
 
Author Message

Трамвай-фильм ®

Gender: Male

Longevity: 5 years 5 months

Posts: 1766

Location: Россия

Post 31-Dec-2019 22:55

[Quote]

Человек из Ниоткуда / The Man from Nowhere / Sacry Stories
Страна: Великобритания
Жанр: приключения
Год выпуска: 1975
Продолжительность: 00:56:42
Перевод: Авторский (одноголосый) Трамвай-фильм
Режиссер: Джеймс Хилл
В ролях: Шейн Франклин ... Уильям, Энтони МакКэффери ... Спайки
Реджи Винч ... Нобби, Робин Кестон ... Джим
Джон Форбс-Робертсон ... Мистер Фриман
Рональд Адам ... Джордж Харви
Эдмунд Томас ... Джо
Габриэль Гамильтон ... Миссис Сми
Сара Холлис Эндрюс ... Элис Харви
Описание: Тринадцатилетняя сирота Элис Харви прибывает на поезде в Тауэр-Хаус, усадьбу, где живет ее пожилой дядя Джордж, которому поручили позаботиться о девочке, как о её единственной живой родственнице. Но сразу же после приезда Элис начинает преследовать загадочный мужчина в чёрном, называющий себя "человеком из ниоткуда", который похоже знает каждый её шаг.

За готовый релиз, сведение звука и место на Облаке спасибо Darth_47
Качество видео: DVDRip-AVC
Формат видео: MKV
Видео: MPEG4 Video (H264), 720x576@900x576 (16:9), 25fps, 2 037 kb/s
Аудио 1: Dolby AC3, 48000Hz, stereo, 192kbps (русский)
Аудио 2: Dolby AC3, 48000Hz, stereo, 192kbps (английский)

MediaInfo

General
Complete name : The Man from Nowhere 1975.x264.DVDRip.Rus.Eng.kosmoaelita.mkv
Format : Matroska
Format version : Version 1
File size : 1 002 MiB
Duration : 56 min 42 s
Overall bit rate : 2 470 kb/s
Movie name : The.Man.from.Nowhere.1975.DVDRip.x264-HANDJOB
Encoded date : UTC 2019-12-31 19:04:22
Writing application : mkvmerge v2.4.2 built on Jan 18 2009 17:30:28
Writing library : libebml v0.7.7 + libmatroska v0.8.1
Video
ID : 1
Format : AVC
Format/Info : Advanced Video Codec
Format profile : High@L4
Format settings : CABAC / 16 Ref Frames
Format settings, CABAC : Yes
Format settings, ReFrames : 16 frames
Codec ID : V_MPEG4/ISO/AVC
Duration : 56 min 42 s
Bit rate : 2 037 kb/s
Width : 720 pixels
Height : 576 pixels
Display aspect ratio : 16:9
Original display aspect ratio : 5:4
Frame rate mode : Constant
Frame rate : 25.000 FPS
Standard : PAL
Color space : YUV
Chroma subsampling : 4:2:0
Bit depth : 8 bits
Scan type : Progressive
Bits/(Pixel*Frame) : 0.196
Stream size : 826 MiB (82%)
Title : kosmoaelita
Writing library : x264 core 130 r2273 b3065e6
Encoding settings : cabac=1 / ref=16 / deblock=1:-3:-3 / analyse=0x3:0x133 / me=umh / subme=11 / psy=1 / psy_rd=1.00:0.00 / mixed_ref=1 / me_range=48 / chroma_me=1 / trellis=2 / 8x8dct=1 / cqm=0 / deadzone=21,11 / fast_pskip=0 / chroma_qp_offset=-2 / threads=12 / lookahead_threads=3 / sliced_threads=0 / nr=0 / decimate=1 / interlaced=0 / bluray_compat=0 / constrained_intra=0 / bframes=16 / b_pyramid=2 / b_adapt=2 / b_bias=0 / direct=3 / weightb=1 / open_gop=0 / weightp=2 / keyint=250 / keyint_min=25 / scenecut=40 / intra_refresh=0 / rc=crf / mbtree=0 / crf=18.5 / qcomp=0.60 / qpmin=0 / qpmax=69 / qpstep=4 / ip_ratio=1.40 / pb_ratio=1.30 / aq=2:0.80
Language : English
Default : Yes
Forced : No
Color range : Limited
Color primaries : BT.601 PAL
Transfer characteristics : BT.709
Matrix coefficients : BT.601
Audio #1
ID : 2
Format : AC-3
Format/Info : Audio Coding 3
Codec ID : A_AC3
Duration : 56 min 42 s
Bit rate mode : Constant
Bit rate : 192 kb/s
Channel(s) : 2 channels
Channel positions : Front: L R
Sampling rate : 48.0 kHz
Frame rate : 31.250 FPS (1536 SPF)
Bit depth : 16 bits
Compression mode : Lossy
Stream size : 77.9 MiB (8%)
Title : Русский АО (Трамвай-фильм для kosmoaelita.com)
Language : Russian
Service kind : Complete Main
Default : Yes
Forced : No
Audio #2
ID : 3
Format : AC-3
Format/Info : Audio Coding 3
Codec ID : A_AC3
Duration : 56 min 42 s
Bit rate mode : Constant
Bit rate : 192 kb/s
Channel(s) : 2 channels
Channel positions : Front: L R
Sampling rate : 48.0 kHz
Frame rate : 31.250 FPS (1536 SPF)
Bit depth : 16 bits
Compression mode : Lossy
Stream size : 77.9 MiB (8%)
Language : English
Service kind : Complete Main
Default : No
Forced : No
Menu
00:00:00.000 : en:Chapter 1
00:06:10.080 : en:Chapter 2
00:14:16.200 : en:Chapter 3
00:21:01.400 : en:Chapter 4
00:30:09.560 : en:Chapter 5
00:39:28.160 : en:Chapter 6
00:50:00.320 : en:Chapter 7

от Переводчика

Фильм сделан для коллекции, т.к. на одном DVD шли еще 2 фильма - "Призраки недр" и "Из Темноты".
На мой взгляд очень качественная постановка, работать с фильмом было приятно, актёрский состав на главные роли подобран хорошо, несмотря на британский английский, более 90% фраз были разборчивы, в т.ч. у детей, исполнителей ролей Элис и Спайки.
Мне лично, напомнил классические игровые фильмы от Диснея конца 1960-х. Изначально, вероятно, задумывался как детский жутик, но в итоге стал приключением с изрядной долей детективной загадки (даже современных детей, не старше возврата основных героев, этот фильм не напугает). Кончено в фильме есть кое-какие ляпы, ну вряд ли в середине 19 века будут сельские дороги покрытые современным асфальтом.

Скриншоты






Релиз залит на Облако
The Man from Nowhere 1975.x264.torrent
Torrent: Registered [ 2020-01-01 00:23 ]

Download .torrent

Download

20 KB

Status: checked
Completed: 4 times
Size: 1002 MB
 


Last edited by Трамвай-фильм on 2020-01-01 02:10; edited 4 times in total
[Profile] [PM]

Трамвай-фильм ®

Gender: Male

Longevity: 5 years 5 months

Posts: 1766

Location: Россия

Post 01-Jan-2020 00:38 (after 1 hour 42 minutes)

[Quote]

Короче что мы имеем по CFF (это британская студия)
Полностью диск "Страшные истории", включающий этот фильм и "Призраки недр" и "Из Темноты"
Полностью Диск "Космические истории", включающий в себя фильмы: "Кадоинг", "Сверхзвуковая тарелка" и "Блестящий шар"
Так же есть еще "Странные истории", диск готов на 2/3, включает фильмы: "Мальчик, который стал жёлтым", "Машина времени профессора Вагстаффа" (она же A Hitch in Time) и The Monster of Highgate Ponds (1961) - этот фильм пока не переведён, но рип у меня есть.

Постеры DVD-шек



Last edited by Трамвай-фильм on 2020-01-02 11:33; edited 1 time in total
[Profile] [PM]

Darth_47

Gender: Male

Longevity: 8 months 11 days

Posts: 497

Post 01-Jan-2020 19:10 (after 18 hours)

[Quote]

Трамвай, признавайся, ты размножаешься почкованием? bj
[Profile] [PM]

Трамвай-фильм ®

Gender: Male

Longevity: 5 years 5 months

Posts: 1766

Location: Россия

Post 01-Jan-2020 19:18 (after 8 minutes)

[Quote]

25431Трамвай, признавайся, ты размножаешься почкованием? bj
Это интересный косяк движка форума, как только этот торрент качают по обмену пирами - получается, что я сам у себя качаю. Такой вот ляп-с.
[Profile] [PM]
Display posts:    
Reply to topic

Current time is: 17-Jan 22:10

All times are UTC + 3



You cannot post new topics in this forum
You cannot reply to topics in this forum
You cannot edit your posts in this forum
You cannot delete your posts in this forum
You cannot vote in polls in this forum
You cannot attach files in this forum
You can download files in this forum