1984 (Майкл Андерсон / Michael Anderson) [1956 г., фантастика, драма, DVDRip] ПД (Студия ИНИС)

Ответить на тему
 
Автор Сообщение

admin ®

Пол: Мужской

Стаж: 5 лет

Сообщений: 4750

Откуда: Україна

Создавать темы 30-Окт-2012 01:40

[Цитировать]

1984
Релиз - kosmoaelita. com
Год выпуска: 1956
Страна: Великобритания, Holiday Film Productions Ltd.
Жанр: фантастика, драма
Продолжительность: 01:30:13
Перевод: Профессиональный (двухголосый) Студия ИНИС
Режиссер: Майкл Андерсон / Michael Anderson
В ролях: Эдмонд О’Брайен, Майкл Редгрейв, Джен Стерлинг, Дэвид Кософф, Мервин Джонс, Дональд Плезенс, Carol Wolveridge, Эрнест Кларк, Патрик Аллен, Ронан О’Кейси
Описание: По одноименному роману-антиутопии Джорджа Оруэлла 1949 года.
Член внешней Партии Уинстон Смит пытается противостоять самой Партии, нечеловечески жестокому тоталитарному режиму. Он и его возлюбленная Джулия надеются на то, что Сопротивление — тайная организация, противостоящая режиму, или пролы (пролетариат) сумеют уничтожить Партию хоть в далёком будущем.
Читать книгу "1984" Подробнее http://ru.wikipedia.org/wiki/1984_(%D1%80%D0%BE%D0%BC%D0%B0%D0%BD)Качество: DVDRip
Формат: MKV
Видео: x264, 2141 кбит/с, 720x552, 23.976 к/с, crf=23
Аудио 1: Русский ПД (ИНИС) (AC3, 2 ch, 192 Кбит/с)
Аудио 2: Английский (AC3, 2 ch, 192 Кбит/с)
Субтитры : Французские, испанские

Версия для ТВ 1954 года


Версия для ТВ 1954 года

Телеверсия 1954 года - Nineteen Eighty-Four(английский)

Релиз

Релиз kosmoaelita.com
Рип с ДВД9, захват и синхронизация русской дорожки - sasha20072007
Русская проф. озвучка - студия ИНИС
Для Украины: рипы и оригинальный ДВД дополнительно залиты в файлохранилище
Для удаления и добавления дорожек в mkv используйте бесплатную mkvmerge GUI 5.80

Дополнительно

Also Known As (AKA)
1984 Austria / Denmark / Finland / Spain (imdb display title) / Sweden
Nel duemila non sorge il sole Italy (imdb display title)
Neunzehnhundertvierundachtzig West Germany

Рецензия

MediaInfo

Общее
Уникальный идентификатор : 195568039159191903141819986983138893184 (0x932108C67466DCA1A7C0B4E781E41D80)
Полное имя : F:\1984 1956.x264.DVDRip(AVC).kosmoaelita.com.mkv
Формат : Matroska
Версия формата : Version 4 / Version 2
Размер файла : 1,62 Гбайт
Продолжительность : 1 ч. 30 м.
Общий поток : 2577 Кбит/сек
Название фильма : 1984 / 1956/ rip by sasha20072007 (2012год)
Дата кодирования : UTC 2010-02-22 21:41:31
Программа кодирования : mkvmerge v5.8.0 ('No Sleep / Pillow') built on Sep 30 2012 10:57:14
Библиотека кодирования : libebml v1.3.0 + libmatroska v1.4.0
Attachment : Yes / Yes / Yes / Yes / Yes / Yes / Yes / Yes
Видео
Идентификатор : 1
Формат : AVC
Формат/Информация : Advanced Video Codec
Профиль формата : High@L4.1
Параметр CABAC формата : Да
Параметр ReFrames формата : 10 кадров
Идентификатор кодека : V_MPEG4/ISO/AVC
Продолжительность : 1 ч. 30 м.
Битрейт : 2141 Кбит/сек
Ширина : 720 пикселей
Высота : 552 пикселя
Соотношение сторон : 4:3
Режим частоты кадров : Постоянный
Частота кадров : 23,976 кадра/сек
Цветовое пространство : YUV
Субдискретизация насыщенности : 4:2:0
Битовая глубина : 8 бит
Тип развёртки : Прогрессивная
Бит/(Пиксели*Кадры) : 0.225
Размер потока : 1,35 Гбайт (83%)
Библиотека кодирования : x264 core 120 r2164 da19765
Настройки программы : cabac=1 / ref=10 / deblock=1:-3:-3 / analyse=0x3:0x133 / me=umh / subme=11 / psy=1 / psy_rd=1.00:0.25 / mixed_ref=1 / me_range=24 / chroma_me=1 / trellis=2 / 8x8dct=1 / cqm=0 / deadzone=6,6 / fast_pskip=1 / chroma_qp_offset=-4 / threads=12 / sliced_threads=0 / nr=0 / decimate=0 / interlaced=0 / bluray_compat=0 / constrained_intra=0 / bframes=10 / b_pyramid=2 / b_adapt=2 / b_bias=0 / direct=3 / weightb=1 / open_gop=0 / weightp=2 / keyint=220 / keyint_min=22 / scenecut=40 / intra_refresh=0 / rc_lookahead=60 / rc=crf / mbtree=1 / crf=23.0 / qcomp=0.80 / qpmin=0 / qpmax=69 / qpstep=4 / vbv_maxrate=17500 / vbv_bufsize=14000 / crf_max=0.0 / nal_hrd=none / ip_ratio=1.15 / aq=1:0.60
Default : Да
Forced : Нет
Аудио #1
Идентификатор : 2
Формат : AC-3
Формат/Информация : Audio Coding 3
Расширение режима : CM (complete main)
Параметр Endianness формата : Big
Идентификатор кодека : A_AC3
Продолжительность : 1 ч. 30 м.
Вид битрейта : Постоянный
Битрейт : 192 Кбит/сек
Каналы : 2 канала
Расположение каналов : Front: L R
Частота : 48,0 КГц
Битовая глубина : 16 бит
Метод сжатия : С потерями
Размер потока : 124 Мбайт (7%)
Заголовок : Русский ПД (студия ИНИС)
Язык : Russian
Default : Да
Forced : Нет
Аудио #2
Идентификатор : 3
Формат : AC-3
Формат/Информация : Audio Coding 3
Расширение режима : CM (complete main)
Параметр Endianness формата : Big
Идентификатор кодека : A_AC3
Продолжительность : 1 ч. 30 м.
Вид битрейта : Постоянный
Битрейт : 192 Кбит/сек
Каналы : 2 канала
Расположение каналов : Front: L R
Частота : 48,0 КГц
Битовая глубина : 16 бит
Метод сжатия : С потерями
Размер потока : 124 Мбайт (7%)
Язык : English
Default : Нет
Forced : Нет
Текст #1
Идентификатор : 4
Формат : VobSub
Идентификатор кодека : S_VOBSUB
Идентификатор кодека/Информация : The same subtitle format used on DVDs
Язык : French
Default : Нет
Forced : Нет
Текст #2
Идентификатор : 5
Формат : VobSub
Идентификатор кодека : S_VOBSUB
Идентификатор кодека/Информация : The same subtitle format used on DVDs
Язык : Spanish
Default : Нет
Forced : Нет
Меню
00:00:00.000 : :Chapter 01
00:01:27.601 : :Chapter 02
00:06:17.268 : :Chapter 03
00:13:31.136 : :Chapter 04
00:19:37.870 : :Chapter 05
00:26:41.537 : :Chapter 06
00:32:46.570 : :Chapter 07
00:39:14.404 : :Chapter 08
00:44:52.738 : :Chapter 09
00:51:41.572 : :Chapter 10
00:58:20.572 : :Chapter 11
01:05:09.839 : :Chapter 12
01:15:41.506 : :Chapter 13
01:23:12.673 : :Chapter 14

Скриншоты






Последний раз редактировалось: admin (2013-12-30 10:44), всего редактировалось 1 раз
[Профиль] [ЛС]

Гость

Пол: Не указан

Создавать темы 30-Дек-2013 10:19 (спустя 1 год 2 месяца)

[Цитировать]

Классная книга. Надеюсь, фильм ей как то соответствует. Писал Оруэлл про СССР, а написал то про капитализм. Как солженицыны метили, якобы, в коммунизм, а угодили в Россию, так и западники смогли. Видимо, это какой-то закон диалектический. Что-то типа "не рой яму ближнему, сам в неё попадёшь".
 

Гость

Пол: Не указан

Создавать темы 07-Июл-2015 20:57 (спустя 1 год 6 месяцев)

[Цитировать]

версия 1954 г.
http://rutracker.org/forum/viewtopic.php?t=4974549
 

$Shorox

Пол: Мужской

Стаж: 4 года 9 месяцев

Сообщений: 1896

Создавать темы 07-Июл-2015 21:09 (спустя 12 минут)

[Цитировать]

1984 / Тысяча девятьсот восемьдесят четвёртый / Nineteen Eighty-Four (1954)
[Профиль] [ЛС]
Быстрый ответ

Имя:

            
Для отправки сообщений необходимо включить JavaScript
Показать сообщения:    
Ответить на тему

Текущее время: 24-Сен 19:18

Часовой пояс: UTC + 3:30



Вы не можете начинать темы
Вы можете отвечать на сообщения
Вы не можете редактировать свои сообщения
Вы не можете удалять свои сообщения
Вы не можете голосовать в опросах
Вы не можете прикреплять файлы к сообщениям
Вы не можете скачивать файлы