Инопланетное оружие / Alien Warfare (Джереми Джонс / Jeremiah Jones) [2019, США, фантастика. боевик, WEBRip-1080p] ПМ (Синема УС)

Reply to topic
DL-List and Torrent activity
Size:  5.08 GB   |    Registered:  9 months 1 day   |    Completed:  2 times

Seeder not seen: 8 months 25 days

 
   
 
 
 
Author Message

kosmoaelita ®

Gender: Male

Longevity: 8 years 1 month

Posts: 1654

Post 31-Dec-2019 16:42

[Quote]

Инопланетное оружие / Alien Warfare
Страна: США, Actionhouse Pictures, Hollywood Media Bridge, Shadow Vale Productions
Жанр: фантастика, боевик
Год выпуска: 2019
Продолжительность: 01:28:22
Перевод: Профессиональный (многоголосый) Синема УС
Режиссер: Джереми Джонс / Jeremiah Jones
В ролях:
Clayton Snyder ... Mike
David B. Meadows ... Chris (as David Meadows)
Daniel Washington ... Jonesy
Scott C. Roe ... Thorpe (as Scott Roe)
Larissa Andrade ... Isabella
Scott Hoffman ... Alien Leader
Kaitlyn Hiller ... Stealth Alien
Taylor Vale ... Tech Alien
Adam Weppler ... Bruiser Alien
Mary Paolino ... Meredith
Evan Leone ... Movladi
Jeffrey Alan Solomon ... Juri (as Jeffrey Soloman)
Sal Rendino ... Avery
Jose Guns Alves ... Maddox (as Jose Gonsalves)
Michael Bakkensen ... Reed
Описание: Отряд морских котиков получил приказ расследовать ситуацию в секретном научном комплексе, с которым внезапно прекратилась связь. Как оказалось, в комплексе хранится неизвестный внеземной объект, погубивший работающих там ученых. Неожиданно на базу нападают враждебные инопланетяне, от которых придется отбиваться главным героям.
Качество видео: WEBRip-1080p
Формат: MKV
Видео: x264, 7113 кбит/с, 1920x1080, 23.976 к/с
Аудио 1: Русский ПМ (AC3, 2 ch, 320 Кбит/с)
Аудио 2: Английский (AC3, 6 ch, 640 Кбит/с)
Субтитры : Английский, + еще 15 разных
Работа над релизом:
Видеоряд найден на rarbg2018.org
Синхронизация русской дорожки и удаление рекламы казино - kosmoaelita



Пример русского перевода

Дополнительно

Also Known As (AKA)
(original title) Alien Warfare
Canada (English title) Alien Warfare
France Alien Warfare
Greece Πεζοναύτες Εναντίον Εξωγήινων
Poland Navy Seals kontra kosmici
Russia Инопланетное оружие
UK Alien Warfare
USA Alien Warfare

Отзывы

MediaInfo

Общее
Уникальный идентификатор : 232468039013936340043807977722246101129 (0xAEE3B73B1054FF54935699D21B347889)
Полное имя : Alien Warfare 2019.x264.WEBRip.1080p.Rus.kosmoaelita.mkv
Формат : Matroska
Версия формата : Version 4
Размер файла : 5,08 Гбайт
Продолжительность : 1 ч. 28 м.
Режим общего битрейта : Переменный
Общий поток : 8237 Кбит/сек
Название фильма : Инопланетное оружие / Alien Warfare / 2019 / kosmoaelita.com
Дата кодирования : UTC 2019-12-31 13:15:38
Программа кодирования : mkvmerge v6.6.0 ('The Edge Of The In Between') built on Dec 1 2013 17:55:00
Библиотека кодирования : libebml v1.3.0 + libmatroska v1.4.1
Attachments : poster.jpg
Видео
Идентификатор : 1
Формат : AVC
Формат/Информация : Advanced Video Codec
Профиль формата : Main@L4
Настройки формата : CABAC / 3 Ref Frames
Параметр CABAC формата : Да
Параметр RefFrames формата : 3 кадра
Идентификатор кодека : V_MPEG4/ISO/AVC
Продолжительность : 1 ч. 28 м.
Вид битрейта : Переменный
Битрейт : 7113 Кбит/сек
Номинальный битрейт : 7500 Кбит/сек
Максимальный битрейт : 11,2 Мбит/сек
Ширина : 1920 пикселей
Высота : 1080 пикселей
Соотношение сторон : 16:9
Режим частоты кадров : Постоянный
Частота кадров : 23,976 (24000/1001) кадра/сек
Цветовое пространство : YUV
Субдискретизация насыщенности : 4:2:0
Битовая глубина : 8 бит
Тип развёртки : Прогрессивная
Бит/(Пиксели*Кадры) : 0.143
Размер потока : 4,39 Гбайт (86%)
Заголовок : kosmoaelita
Библиотека кодирования : x264 core 148 r2715 7e75228
Настройки программы : cabac=1 / ref=3 / deblock=1:0:0 / analyse=0x1:0x111 / me=umh / subme=10 / psy=1 / psy_rd=1.00:0.00 / mixed_ref=1 / me_range=24 / chroma_me=1 / trellis=2 / 8x8dct=0 / cqm=0 / deadzone=21,11 / fast_pskip=1 / chroma_qp_offset=-2 / threads=8 / lookahead_threads=1 / sliced_threads=0 / nr=0 / decimate=1 / interlaced=0 / bluray_compat=0 / stitchable=1 / constrained_intra=0 / bframes=2 / b_pyramid=0 / b_adapt=2 / b_bias=0 / direct=3 / weightb=1 / open_gop=0 / weightp=2 / keyint=48 / keyint_min=25 / scenecut=0 / intra_refresh=0 / rc_lookahead=48 / rc=2pass / mbtree=1 / bitrate=7500 / ratetol=1.0 / qcomp=0.50 / qpmin=6 / qpmax=51 / qpstep=4 / cplxblur=20.0 / qblur=0.5 / vbv_maxrate=11250 / vbv_bufsize=15000 / nal_hrd=vbr / filler=0 / ip_ratio=1.40 / aq=1:1.00
Default : Да
Forced : Нет
Аудио #1
Идентификатор : 2
Формат : AC-3
Формат/Информация : Audio Coding 3
Коммерческое название : Dolby Digital
Идентификатор кодека : A_AC3
Продолжительность : 1 ч. 28 м.
Вид битрейта : Постоянный
Битрейт : 320 Кбит/сек
Каналы : 2 канала
ChannelLayout : L R
Частота : 48,0 КГц
Частота кадров : 31,250 кадров/сек (1536 SPF)
Метод сжатия : С потерями
Размер потока : 202 Мбайт (4%)
Заголовок : Русский ПМ (Синема УС)
Язык : Russian
ServiceKind/String : Complete Main
Default : Да
Forced : Нет
Аудио #2
Идентификатор : 3
Формат : E-AC-3
Формат/Информация : Enhanced AC-3
Коммерческое название : Dolby Digital Plus
Идентификатор кодека : A_EAC3
Продолжительность : 1 ч. 28 м.
Вид битрейта : Постоянный
Битрейт : 640 Кбит/сек
Каналы : 6 каналов
ChannelLayout : L R C LFE Ls Rs
Частота : 48,0 КГц
Частота кадров : 31,250 кадров/сек (1536 SPF)
Метод сжатия : С потерями
Размер потока : 405 Мбайт (8%)
Заголовок : English
Язык : English
ServiceKind/String : Complete Main
Default : Нет
Forced : Нет
Текст #1
Идентификатор : 4
Формат : UTF-8
Идентификатор кодека : S_TEXT/UTF8
Идентификатор кодека/Информация : UTF-8 Plain Text
Default : Да
Forced : Нет
Текст #2
Идентификатор : 5
Формат : UTF-8
Идентификатор кодека : S_TEXT/UTF8
Идентификатор кодека/Информация : UTF-8 Plain Text
Язык : Polish
Default : Нет
Forced : Нет
Текст #3
Идентификатор : 6
Формат : UTF-8
Идентификатор кодека : S_TEXT/UTF8
Идентификатор кодека/Информация : UTF-8 Plain Text
Язык : English
Default : Нет
Forced : Нет
Текст #4
Идентификатор : 7
Формат : UTF-8
Идентификатор кодека : S_TEXT/UTF8
Идентификатор кодека/Информация : UTF-8 Plain Text
Заголовок : SDH
Язык : English
Default : Нет
Forced : Нет
Текст #5
Идентификатор : 8
Формат : UTF-8
Идентификатор кодека : S_TEXT/UTF8
Идентификатор кодека/Информация : UTF-8 Plain Text
Язык : Spanish
Default : Нет
Forced : Нет
Текст #6
Идентификатор : 9
Формат : UTF-8
Идентификатор кодека : S_TEXT/UTF8
Идентификатор кодека/Информация : UTF-8 Plain Text
Заголовок : European
Язык : Spanish
Default : Нет
Forced : Нет
Текст #7
Идентификатор : 10
Формат : UTF-8
Идентификатор кодека : S_TEXT/UTF8
Идентификатор кодека/Информация : UTF-8 Plain Text
Язык : German
Default : Нет
Forced : Нет
Текст #8
Идентификатор : 11
Формат : UTF-8
Идентификатор кодека : S_TEXT/UTF8
Идентификатор кодека/Информация : UTF-8 Plain Text
Язык : Greek
Default : Нет
Forced : Нет
Текст #9
Идентификатор : 12
Формат : UTF-8
Идентификатор кодека : S_TEXT/UTF8
Идентификатор кодека/Информация : UTF-8 Plain Text
Язык : French
Default : Нет
Forced : Нет
Текст #10
Идентификатор : 13
Формат : UTF-8
Идентификатор кодека : S_TEXT/UTF8
Идентификатор кодека/Информация : UTF-8 Plain Text
Язык : Hebrew
Default : Нет
Forced : Нет
Текст #11
Идентификатор : 14
Формат : UTF-8
Идентификатор кодека : S_TEXT/UTF8
Идентификатор кодека/Информация : UTF-8 Plain Text
Язык : Italian
Default : Нет
Forced : Нет
Текст #12
Идентификатор : 15
Формат : UTF-8
Идентификатор кодека : S_TEXT/UTF8
Идентификатор кодека/Информация : UTF-8 Plain Text
Язык : Japanese
Default : Нет
Forced : Нет
Текст #13
Идентификатор : 16
Формат : UTF-8
Идентификатор кодека : S_TEXT/UTF8
Идентификатор кодека/Информация : UTF-8 Plain Text
Язык : Portuguese
Default : Нет
Forced : Нет
Текст #14
Идентификатор : 17
Формат : UTF-8
Идентификатор кодека : S_TEXT/UTF8
Идентификатор кодека/Информация : UTF-8 Plain Text
Заголовок : Brazilian
Язык : Portuguese
Default : Нет
Forced : Нет
Текст #15
Идентификатор : 18
Формат : UTF-8
Идентификатор кодека : S_TEXT/UTF8
Идентификатор кодека/Информация : UTF-8 Plain Text
Язык : Turkish
Default : Нет
Forced : Нет
Текст #16
Идентификатор : 19
Формат : UTF-8
Идентификатор кодека : S_TEXT/UTF8
Идентификатор кодека/Информация : UTF-8 Plain Text
Заголовок : Simplified
Язык : Chinese
Default : Нет
Forced : Нет

Скриншоты


















Скринлист

Файл дополнительно залит на ОБЛАКО
Alien Warfare 2019.x264.WEBRip.1080p.Rus.kosmoaelita.mkv.torrent
Torrent: Registered [ 2019-12-31 16:42 ]

Download .torrent

Download

13 KB

Status: checked
Completed: 2 times
Size: 5.08 GB
 
[Profile] [PM]

Трамвай-фильм

Gender: Male

Longevity: 6 years 1 month

Posts: 1864

Location: Россия

Post 31-Dec-2019 18:46 (after 2 hours 4 minutes)

[Quote]

Гибрид Дума и Хищника?
[Profile] [PM]
Display posts:    
Reply to topic

Current time is: 01-Oct 22:01

All times are UTC + 3



You cannot post new topics in this forum
You cannot reply to topics in this forum
You cannot edit your posts in this forum
You cannot delete your posts in this forum
You cannot vote in polls in this forum
You cannot attach files in this forum
You can download files in this forum