Истории Франкенштейна (ТВ) / Tales of Frankenstein (Курт Сьодмак / Curt Siodmak) [1958, США, ужасы, фантастика, DVDRip] [TV] АО (Трамвай-фильм)

Reply to topic
DL-List and Torrent activity
Size:  149 MB   |    Registered:  20 days   |    Completed:  2 times

Seeders:

Username ULR UL DL UL speed DL speed
pompilius 2.9 458049700437 MB 0- 0- 0-
shows data only for the current session
 
   
 
 
 
Author Message

Трамвай-фильм ®

Gender: Male

Longevity: 5 years 5 months

Posts: 1766

Location: Россия

Post 28-Dec-2019 20:34

[Quote]

Истории Франкенштейна (ТВ) / Tales of Frankenstein
Страна: Великобритания, США,Columbia Pictures Corporation, Columbia Pictures Television, Hammer Film Productions Limited, Revue Studios
Жанр: короткометражка, ужасы, фантастика
Год выпуска: 1958
Продолжительность: 00:27:15
Перевод: Авторский (одноголосый) Трамвай-фильм
Режиссер: Курт Сьодмак / Curt Siodmak
В ролях:
Антон Диффринг ... Барон Франкенштейн
Хелен Уэсткотт ... Кристина Хелперт
Дон Мегован ... Монстр
Людвиг Штоссель ... Вильгельм
Ричард Булл ... Пол Хелперт
Рэймонд Гринлиф ... Доктор
Питер Брокко ... Смотритель кладбища
Сидни Мейсон ... Начальник полиции
Описание: Адаптация классической книги о докторе Франкештейне и его чудовище, созданном из мёртвой материи, но после возвращенного к жизни.
Доп. информация: Расчет был на сериал, но пилотная серия никого не заинтересовала, поэтому все истории обошлись первым эпизодом.
Рип найден на archive.org
Качество видео: DVDRip
Видео: MPEG4 Video (H264), 640x480, 29.97fps, 505 kb/s
Аудио 1: AAC, 44100Hz, stereo, 128 кб/с (русский)
Аудио 2: AAC, 44100Hz, stereo, 126 кб/с (английский)
Работа над релизом:




С русским переводом

MediaInfo

Format : Matroska
Format version : Version 4 / Version 2
File size : 149 MiB
Duration : 27 min 15 s
Overall bit rate : 762 kb/s
Encoded date : UTC 2019-12-28 17:23:37
Writing application : mkvmerge v7.1.0 ('Good Love') 32bit built on Jul 27 2014 12:59:18
Writing library : libebml v1.3.0 + libmatroska v1.4.1
Video
ID : 1
Format : AVC
Format/Info : Advanced Video Codec
Format profile : Main@L3
Format settings : CABAC / 3 Ref Frames
Format settings, CABAC : Yes
Format settings, ReFrames : 3 frames
Codec ID : V_MPEG4/ISO/AVC
Duration : 27 min 15 s
Bit rate : 505 kb/s
Width : 640 pixels
Height : 480 pixels
Display aspect ratio : 4:3
Frame rate mode : Constant
Frame rate : 29.970 (30000/1001) FPS
Color space : YUV
Chroma subsampling : 4:2:0
Bit depth : 8 bits
Scan type : Progressive
Bits/(Pixel*Frame) : 0.055
Stream size : 98.4 MiB (66%)
Default : Yes
Forced : No
Audio #1
ID : 2
Format : AAC
Format/Info : Advanced Audio Codec
Format profile : LC
Codec ID : A_AAC-2
Duration : 27 min 15 s
Bit rate : 128 kb/s
Channel(s) : 2 channels
Channel positions : Front: L R
Sampling rate : 44.1 kHz
Frame rate : 43.066 FPS (1024 SPF)
Compression mode : Lossy
Stream size : 24.9 MiB (17%)
Title : АО Трамвай-фильм
Language : Russian
Default : Yes
Forced : No
Audio #2
ID : 3
Format : AAC
Format/Info : Advanced Audio Codec
Format profile : LC
Codec ID : A_AAC-2
Duration : 27 min 15 s
Bit rate : 126 kb/s
Channel(s) : 2 channels
Channel positions : Front: L R
Sampling rate : 44.1 kHz
Frame rate : 43.066 FPS (1024 SPF)
Compression mode : Lossy
Stream size : 24.5 MiB (16%)
Title : Original sound
Language : English
Default : No
Forced : No

Скриншоты




Скринлист

Файл дополнительно залит на ОБЛАКО
Tales-of-Frankenstein-(TV)-1958.torrent
Torrent: Registered [ 2019-12-28 20:34 ]

Download .torrent

Download

12 KB

Status: checked
Completed: 2 times
Size: 149 MB
 
[Profile] [PM]
Display posts:    
Reply to topic

Current time is: 17-Jan 23:15

All times are UTC + 3



You cannot post new topics in this forum
You cannot reply to topics in this forum
You cannot edit your posts in this forum
You cannot delete your posts in this forum
You cannot vote in polls in this forum
You cannot attach files in this forum
You can download files in this forum