Флешманы: Фильм / Choushinsei Flashman: Movie Minoru Yamada) [1986, Япония, фильм действия, токусацу, фантастика, DVDRip] СТ (eng), СТ (Mr.Faer)

Reply to topic
 
Author Message

Faer ®

Gender: Male

Longevity: 5 years

Posts: 363

Location: Сербия

Post 25-Dec-2019 18:24

[Quote]

Choushinsei Flashman: Movie
Страна: Япония
Жанр: фильм действия, токусацу, фантастика
Год выпуска: 1986
Продолжительность: 00:20:23
Перевод: Субтитры
Cубтитры: английские, русские (внешним файлом)
Режиссер: Minoru Yamada
В ролях: Touta Tarumi, Kihachiro Uemura, Yasuhiro Ishiwata, Youko Nakamura, Mayumi Yoshida, Hiroko Maruyama и другие.
Описание: The Flashman find themselves protecting a puppy targeted by Mess due to it being the weakness of a chimera Beast Warrior.
Качество видео: DVDRip
Формат видео: MKV
Видео: AVC, 1280х720, 16:9, 23,976fps, 4734 Кбит/с
Аудио: AAC, 48,0 КГц, 116 Кбит/с, стерео
Формат субтитров: софтсаб (английские), внешним файлом (русские)

Скриншоты




MediaInfo

Общее
Уникальный идентификатор : 182950011942393996046934340485715151059 (0x89A2E4007F4531B1AE01FA4D81C948D3)
Полное имя : C:\[G.U.I.S.] Choushinsei Flashman Movie (4D54FA18).mkv
Формат : Matroska
Версия формата : Version 4
Размер файла : 708 Мбайт
Продолжительность : 20 м. 23 с.
Общий поток : 4853 Кбит/сек
Дата кодирования : UTC 2015-12-20 19:54:22
Программа кодирования : mkvmerge v8.6.1 ('Flying') 64bit
Библиотека кодирования : libebml v1.3.3 + libmatroska v1.4.4
Attachments : OldSansBlack.ttf
Видео
Идентификатор : 1
Формат : AVC
Формат/Информация : Advanced Video Codec
Профиль формата : High 10@L5.1
Настройки формата : CABAC / 16 Ref Frames
Параметр CABAC формата : Да
Параметр RefFrames формата : 16 кадров
Идентификатор кодека : V_MPEG4/ISO/AVC
Продолжительность : 20 м. 23 с.
Битрейт : 4734 Кбит/сек
Ширина : 1280 пикселей
Высота : 720 пикселей
Соотношение сторон : 16:9
Режим частоты кадров : Постоянный
Частота кадров : 23,976 (24000/1001) кадра/сек
Цветовое пространство : YUV
Субдискретизация насыщенности : 4:2:0
Битовая глубина : 10 бит
Тип развёртки : Прогрессивная
Бит/(Пиксели*Кадры) : 0.214
Размер потока : 691 Мбайт (98%)
Библиотека кодирования : x264 core 120 r2146+650 183470d
Настройки программы : cabac=1 / ref=16 / deblock=1:-1:-1 / analyse=0x3:0x133 / me=umh / subme=10 / psy=1 / fade_compensate=0.30 / psy_rd=0.30:0.00 / mixed_ref=1 / me_range=24 / chroma_me=1 / trellis=2 / 8x8dct=1 / cqm=0 / deadzone=21,11 / fast_pskip=1 / chroma_qp_offset=-2 / threads=6 / sliced_threads=0 / nr=0 / decimate=1 / interlaced=0 / bluray_compat=0 / constrained_intra=0 / fgo=0 / bframes=8 / b_pyramid=2 / b_adapt=2 / b_bias=0 / direct=3 / weightb=1 / open_gop=0 / weightp=2 / keyint=250 / keyint_min=23 / scenecut=40 / intra_refresh=0 / rc_lookahead=60 / rc=crf / mbtree=1 / crf=19.0 / qcomp=0.60 / qpmin=0 / qpmax=81 / qpstep=4 / ip_ratio=1.40 / aq=1:1.00
Язык : English
Default : Да
Forced : Нет
Цветовой диапазон : Limited
Коэффициенты матрицы : BT.709
Аудио
Идентификатор : 2
Формат : AAC LC
Формат/Информация : Advanced Audio Codec Low Complexity
Идентификатор кодека : A_AAC-2
Продолжительность : 20 м. 23 с.
Битрейт : 116 Кбит/сек
Каналы : 2 канала
ChannelLayout : L R
Частота : 48,0 КГц
Частота кадров : 46,875 кадров/сек (1024 SPF)
Метод сжатия : С потерями
Задержка видео : 9 мс.
Размер потока : 16,9 Мбайт (2%)
Язык : Japanese
Default : Да
Forced : Нет
Текст
Идентификатор : 3
Формат : ASS
Идентификатор кодека : S_TEXT/ASS
Идентификатор кодека/Информация : Advanced Sub Station Alpha
Продолжительность : 20 м. 21 с.
Битрейт : 68 бит/сек
ElementCount : 218
Метод сжатия : Без потерь
Размер потока : 10,2 Кбайт (0%)
Язык : English
Default : Да
Forced : Нет
cd Рип дополнительно залит на облако cd2


Last edited by Faer on 2019-12-25 18:39; edited 1 time in total
[Profile] [PM]

Faer ®

Gender: Male

Longevity: 5 years

Posts: 363

Location: Сербия

Post 25-Dec-2019 18:30 (after 6 minutes)

[Quote]

На торренте не будет (по крайней мере, пока что). Качайте с облака.
[Profile] [PM]

Трамвай-фильм

Gender: Male

Longevity: 5 years 5 months

Posts: 1766

Location: Россия

Post 25-Dec-2019 18:34 (after 4 minutes)

[Quote]

О давненько у нас не было японщины в стиле Камен рпйдера, надо будет глянуть на НГ каникулах.
[Profile] [PM]

Faer ®

Gender: Male

Longevity: 5 years

Posts: 363

Location: Сербия

Post 25-Dec-2019 18:38 (after 3 minutes)

[Quote]

25162О давненько у нас не было японщины в стиле Камен рпйдера, надо будет глянуть на НГ каникулах.
Я ведь не шутил, я переводил Райдера. Просто ленился его редактировать. Серий 10 точно есть, и пара фильмов. Пока на работе завала нет, буду как стахановец стараться.
[Profile] [PM]

Трамвай-фильм

Gender: Male

Longevity: 5 years 5 months

Posts: 1766

Location: Россия

Post 25-Dec-2019 19:28 (after 49 minutes)

[Quote]

OK
[Profile] [PM]
Display posts:    
Reply to topic

Current time is: 17-Jan 21:38

All times are UTC + 3



You can post new topics in this forum
You cannot reply to topics in this forum
You cannot edit your posts in this forum
You cannot delete your posts in this forum
You cannot vote in polls in this forum
You cannot attach files in this forum
You can download files in this forum