Солнечный удар / Solar Attack / Solar Strike (Пауль Циллер / Paul Ziller) [2006, Канада, Фантастика, боевик, триллер, катастрофа, WEB-DL-720p] ПМ (Лицензия R5), СТ (R5)

Reply to topic
DL-List and Torrent activity
Size:  4.12 GB   |    Registered:  1 year 2 months   |    Completed:  0 times

Seeder not seen: 1 year 2 months

 
   
 
 
 
Author Message

kosmoaelita ®

Gender: Male

Longevity: 8 years 5 months

Posts: 1729

Post 22-Dec-2019 16:17

[Quote]

Солнечный удар / Solar Attack / Solar Strike
Страна: Канада, Cinetel Films, Corus Entertainment, Gestion SODEC, Movie Central, Ontario Film & Television Tax Credit, Outrage Productions 5, Quebec Film and Television Tax Credit, S.V. Scary Films 3
Жанр: Фантастика, боевик, триллер , катастрофа
Год выпуска: 2006
Продолжительность: 01:31:30
Перевод 1: Профессиональный (многоголосый) Лицензия R5
Перевод 2: Субтитры (R5)
Режиссер: Пауль Циллер / Paul Ziller
В ролях:
Mark Dacascos ... Lucas Foster
Joanne Kelly ... Joanna Parks
Kevin Jubinville ... Brad Stamp
Sugith Varughese ... Patel
Craig Eldridge ... Jim Leeburg
Tim Post ... Joe Aguilar
Stephen McHattie ... Admiral Lawrence
Conrad Coates ... Colonel Alby
Louis Gossett Jr. ... President Ryan Gordon
Damir Andrei ... Russian President Yuri Ilyushin
Bill Lake Bill Lake ... Captain Misha Gregorovitch
Genadijs Dolganovs ... Lt. Troiska
Romas Stanulis ... Russian Crew Member
Ronn Sarosiak ... Captain Wade
Duane Murray ... Lt. Copeland
Описание: На Солнце произошла невероятной силы вспышка. В результате этого космического ЧП от раскаленного светила отделилась верхняя оболочка и с угрожающей скоростью начала двигаться в сторону Земли, угрожая планете глобальной катастрофой. Кто спасет людей от апокалипсиса?
Качество видео: WEB-DL-720p
Формат: MKV
Видео: x264, 5616 кбит/с, 1280x720, 23.976 к/с
Аудио 1: Русский ПМ (AC3, 6 ch, 448 Кбит/с)
Аудио 2: Английский (AC3, 2 ch, 256 Кбит/с)
Субтитры : Русские (R5), английские
Работа над релизом:
Видеоряд найден на rarbg2018.org
Синхронизация русской дорожки и тайминг рус. субтитров - kosmoaelita



С русским переводом:

Дополнительно

слоган «Prepare for the Apocalypse...»
бюджет CAD 2 000 000
Also Known As (AKA)
(original title) Solar Strike
Brazil Ataque Solar
France Alerte solaire
Germany Solar Attack - Der Himmel brennt
Greece (DVD title) Iliaki kataigida
Hungary Támad a Nap
Italy Solar Attack
Japan (Japanese title) ソーラー・ストライク
Portugal Ataque Solar
Russia Солнечный удар
Spain La amenaza solar
USA (new title) Solar Attack

Знаете ли вы, что...

Отзывы

Бедный Марк Дакаскос, перебивается второсортными ролями. Так и хочется снова пересмотреть Братство Волка или Плачущего убийцу...
Ну а по фильму обычный среднеамериканский эпос о армагеддоне и вездесущих спасителях...
-------------------------
Опять америкосы мир спасли ? Что бы мы без них делали ?...
--------------------------
Фильм второсортный. Правда, мне понравилось. По тв3 смотрел
Если нечего смотреть и если нравится игра Марка Дакаскоса, посмотреть можно
------------------------
Фильм хороший, мне понравился.

MediaInfo

Общее
Уникальный идентификатор : 170152355264619450231190041120089232406 (0x800226CFFE184CD99824D71BFB1ED416)
Полное имя : N:\BD-DISC\Solar.Strike.2006.720p.AMZN.WEBRip.DDP2.0.x264-NIZAM\Solar Attack 2006.x264.WEB-DL.720p.Rus.kosmoaelita.mkv
Формат : Matroska
Версия формата : Version 4
Размер файла : 4,12 Гбайт
Продолжительность : 1 ч. 31 м.
Общий поток : 6449 Кбит/сек
Название фильма : Солнечный удар / Solar Attack / 2006 / kosmoaelita
Дата кодирования : UTC 2019-12-22 11:20:24
Программа кодирования : mkvmerge v6.6.0 ('The Edge Of The In Between') built on Dec 1 2013 17:55:00
Библиотека кодирования : libebml v1.3.0 + libmatroska v1.4.1
Attachments : poster _.jpg
Видео
Идентификатор : 1
Формат : AVC
Формат/Информация : Advanced Video Codec
Профиль формата : High@L3.1
Настройки формата : CABAC / 4 Ref Frames
Параметр CABAC формата : Да
Параметр RefFrames формата : 4 кадра
Идентификатор кодека : V_MPEG4/ISO/AVC
Продолжительность : 1 ч. 31 м.
Вид битрейта : Постоянный
Битрейт : 5616 Кбит/сек
Номинальный битрейт : 6000 Кбит/сек
Ширина : 1280 пикселей
Высота : 720 пикселей
Соотношение сторон : 16:9
Режим частоты кадров : Постоянный
Частота кадров : 23,976 (24000/1001) кадра/сек
Цветовое пространство : YUV
Субдискретизация насыщенности : 4:2:0
Битовая глубина : 8 бит
Тип развёртки : Прогрессивная
Бит/(Пиксели*Кадры) : 0.254
Размер потока : 3,59 Гбайт (87%)
Заголовок : kosmoaelita
Default : Да
Forced : Нет
Цветовой диапазон : Limited
Основные цвета : BT.709
Характеристики трансфера : BT.709
Коэффициенты матрицы : BT.709
Аудио #1
Идентификатор : 2
Формат : AC-3
Формат/Информация : Audio Coding 3
Коммерческое название : Dolby Digital
Идентификатор кодека : A_AC3
Продолжительность : 1 ч. 31 м.
Вид битрейта : Постоянный
Битрейт : 448 Кбит/сек
Каналы : 6 каналов
ChannelLayout : L R C LFE Ls Rs
Частота : 48,0 КГц
Частота кадров : 31,250 кадров/сек (1536 SPF)
Метод сжатия : С потерями
Размер потока : 293 Мбайт (7%)
Заголовок : Русский ПМ (R5)
Язык : Russian
ServiceKind/String : Complete Main
Default : Да
Forced : Нет
Аудио #2
Идентификатор : 3
Формат : AC-3
Формат/Информация : Audio Coding 3
Коммерческое название : Dolby Digital
Идентификатор кодека : A_AC3
Продолжительность : 1 ч. 31 м.
Вид битрейта : Постоянный
Битрейт : 256 Кбит/сек
Каналы : 2 канала
ChannelLayout : L R
Частота : 48,0 КГц
Частота кадров : 31,250 кадров/сек (1536 SPF)
Метод сжатия : С потерями
Размер потока : 168 Мбайт (4%)
Язык : English
ServiceKind/String : Complete Main
Default : Нет
Forced : Нет
Текст #1
Идентификатор : 4
Формат : PGS
Режим смешивания : zlib
Идентификатор кодека : S_HDMV/PGS
Идентификатор кодека/Информация : Picture based subtitle format used on BDs/HD-DVDs
Заголовок : Русский .PGS
Язык : Russian
Default : Да
Forced : Нет
Текст #2
Идентификатор : 5
Формат : UTF-8
Идентификатор кодека : S_TEXT/UTF8
Идентификатор кодека/Информация : UTF-8 Plain Text
Заголовок : Русский .srt
Язык : Russian
Default : Нет
Forced : Нет
Текст #3
Идентификатор : 6
Формат : UTF-8
Идентификатор кодека : S_TEXT/UTF8
Идентификатор кодека/Информация : UTF-8 Plain Text
Заголовок : English [SDH]
Язык : English
Default : Нет
Forced : Нет

Скриншоты















Скринлист

Файл дополнительно залит на ОБЛАКО
Solar Attack 2006.x264.WEB-DL.720p.Rus.kosmoaelita.mkv.torrent
Torrent: Registered [ 2019-12-22 16:17 ]

Download .torrent

Download

21 KB

Status: checked
Completed: 0 times
Size: 4.12 GB
 


Last edited by kosmoaelita on 2019-12-22 21:12; edited 4 times in total
[Profile] [PM]

kosmoaelita ®

Gender: Male

Longevity: 8 years 5 months

Posts: 1729

Post 22-Dec-2019 16:21 (after 4 minutes)

[Quote]

DVD PAL vs. WEB-DL

[Profile] [PM]
Display posts:    
Reply to topic

Current time is: 26-Feb 09:17

All times are UTC + 3



You cannot post new topics in this forum
You cannot reply to topics in this forum
You cannot edit your posts in this forum
You cannot delete your posts in this forum
You cannot vote in polls in this forum
You cannot attach files in this forum
You can download files in this forum