Человек и Луна / Man and the Moon / Wonderful World of Disney (Disneyland: Season 2, Episode 14) (Ward Kimball) [1955 г., Научно-популярный, документальный, DVDRip] ЛО (slavnus)

Reply to topic
 
Author Message

admin ®

Gender: Male

Longevity: 8 years 1 month

Posts: 4795

Post 28-Oct-2012 04:10

[Quote]

Человек и Луна / Man and the Moon (Disneyland: Season 2, Episode 14)
Год выпуска: 1955
Страна: США, Walt Disney Studios, 500 South Buena Vista Street, Burbank,
Жанр: Научно-популярный, документальный
Продолжительность: 00:47:49
Перевод: Любительский (одноголосый) slavnus
Режиссер: Ward Kimball
В ролях: Frank Gerstle, Richard Emory and Frank Connor
Описание: Из серии Disneyland (Season 2, Episode 14)
Знаменитое кинопутешествие студии Дисней и НАСА по миру Луны.
По тому, что мы знаем про Луну, как мы до неё полетим, это показано в коротком кинофильме в конце.
А также, что знали древние люди о луне, в наше время и зачем нам луна вообще

Качество: DVDRip
Формат: AVI
Видео: xvid, 1173 кбит/с, 640x480, 23,976 к/с
Аудио: Русский (MP3, 2 ch, 128 Кбит/с)


Дополнительно

MediaInfo

Общее
Полное имя : F:\Man & the Moon.avi
Формат : AVI
Формат/Информация : Audio Video Interleave
Размер файла : 448 Мбайт
Продолжительность : 47 м.
Общий поток : 1311 Кбит/сек
Программа кодирования : VirtualDubMod 1.5.10.2 (build 2540/release)
Библиотека кодирования : VirtualDubMod build 2540/release
Видео
Идентификатор : 0
Формат : MPEG-4 Visual
Профиль формата : Advanced Simple@L5
Параметр BVOP формата : 2
Параметр QPel формата : Нет
Параметр GMC формата : Без точки перехода
Параметр матрицы формата : Default (H.263)
Идентификатор кодека : XVID
Идентификатор кодека/Подсказка : XviD
Продолжительность : 47 м.
Битрейт : 1173 Кбит/сек
Ширина : 640 пикселей
Высота : 480 пикселей
Соотношение сторон : 4:3
Частота кадров : 23,976 кадра/сек
Цветовое пространство : YUV
Субдискретизация насыщенности : 4:2:0
Битовая глубина : 8 бит
Тип развёртки : Прогрессивная
Метод сжатия : С потерями
Бит/(Пиксели*Кадры) : 0.159
Размер потока : 401 Мбайт (90%)
Библиотека кодирования : XviD 1.2.0.dev47 (UTC 2006-11-01)
Аудио
Идентификатор : 1
Формат : MPEG Audio
Версия формата : Version 1
Профиль формата : Layer 3
Режим : Joint stereo
Расширение режима : MS Stereo
Идентификатор кодека : 55
Идентификатор кодека/Подсказка : MP3
Продолжительность : 47 м.
Вид битрейта : Постоянный
Битрейт : 128 Кбит/сек
Каналы : 2 канала
Частота : 44,1 КГц
Метод сжатия : С потерями
Размер потока : 43,8 Мбайт (10%)
Выравнивание : Разделение по промежуткам
Продолжительность промежутка : 42 мс. (1,00 видеокадр)
Время предзагрузки промежутка : 500 мс.

Скриншоты



[Profile] [PM]
Display posts:    
Reply to topic

Current time is: 31-Oct 13:11

All times are UTC + 3



You cannot post new topics in this forum
You cannot reply to topics in this forum
You cannot edit your posts in this forum
You cannot delete your posts in this forum
You cannot vote in polls in this forum
You cannot attach files in this forum
You cannot download files in this forum