Неоновый город / Neon city (Монте Маркэм / Monte Markham) [1991, США, Канада, Фантастика, боевик, приключения, постапокалипсис, SATRip] ПД (НТВ+), ПД (НТВ), АО (П.Карцев), АО (А.Гаврилов) с VHS

Reply to topic
 
Author Message

kosmoaelita ®

Gender: Male

Longevity: 8 years 10 months

Posts: 1729

Post 08-Dec-2019 14:07

[Quote]

Неоновый город / Neon city
Страна: США, Канада, Kodiak Films, Little Bear, ProductionsTrimark Pictures
Жанр: Фантастика, боевик, приключения, постапокалипсис
Год выпуска: 1991
Продолжительность: 01:43:29
Перевод 1: Профессиональный (двухголосый) НТВ+ - Н.Казначеева. П.Кипнис
Перевод 2: Профессиональный (двухголосый) НТВ - А.Дик, М.Тарасова
Перевод 3: Авторский (одноголосый) П.Карцев
Перевод 4: Авторский (одноголосый) А.Гаврилов) с VHS
Режиссер: Монте Маркэм / Monte Markham
В ролях:
Michael Ironside ... Harry M. Stark
Vanity ... Reno
Lyle Alzado Lyle Alzado ... Bulk
Valerie Wildman Valerie Wildman ... Sandy Randall
Nick Klar ... Dr. Tom
Juliet Landau ... Twink Talaman
Arsenio 'Sonny' Trinidad ... Wing
Richard Sanders ... Dickie Devine
Monte Markham ... Captain Raymond
Jesse Bennett ... Captain Jenkins
Curley Green ... Dispatcher
Jeff Olson ... Doctor at Jericho (as Jeffery Olson)
Anthony Leger ... Gary
John Perryman ... Guard at Jericho
Donna Todd ... Annie
Описание: 2053 год… Озоновый слой Земли разрушен, он больше не защищает планету. Все, что осталось от прежней цветущей Земли — это горстка людей, постоянно борющихся за свое существование, да несколько чудом уцелевших оазисов, пригодных для жизни. На планету опустилась вечная зима.
Главный герой фильма — Гарри Старк — бывший лесничий. Вся его прошлая жизнь, всё, что он когда-то любил — всё разрушено благодаря законам нового общества: его сын, родившийся мутантом, отнят властями, его жена была стерилизована. Таковы новые порядки на планете, и каждый житель должен беспрекословно подчиняться им.
Но не сломленный духом, Гарри становится охотником за новыми землями, пригодными для жизни.
Этот фильм что-то среднее между "Дилижансом" Джона Форда и "Безумным Максом: Воином дороги".

Качество видео: SATRip
Формат: MKV
Видео: x264, 1650 кбит/с, 720x528, 25 к/с
Аудио 1: Русский (AC3, 2 ch, 192 Кбит/с)
Аудио 2: Русский (AC3, 2 ch, 192 Кбит/с)
Аудио 3: Русский (AC3, 2 ch, 192 Кбит/с)
Аудио 4: Русский (AC3, 2 ch, 192 Кбит/с)
Аудио 5: Английский (AC3, 2 ch, 256 Кбит/с)
Работа над релизом:
Рип, замазывание логотипа канала и синх. всех русских дорожек - kosmoaelita



Русский перевод НТВ+

Дополнительно

слоган «Take a deep breath, it may be your last. Welcome to the year 2053»
Also Known As (AKA)
(original title) Neon City
Argentina (video title) Neon City
Brazil Expresso para Neon City
Finland (video box title) Pahuuden kaupunki
France Neon City
Greece (video title) I poli tou olethrou
Hungary Neon City
Italy Anno 2053 - la grande fuga
Japan (Japanese title) バトルトラック2053
Russia Неоновый город
Serbia Neonski grad
Spain El imperio de neon
Производство 9 февраля 1991 — 19 марта 1991
Съёмки: 9 февраля 1991 — 8 марта 1991
Формат изображения: 1.85 : 1
Формат копии: 35 mm
Формат съёмок: 35 mm
Изображение: цветное
Язык: английский

Знаете ли вы, что...

"Диллижанс" будущего смайлик+

Отзывы

Это один из тех фильмов которые вы либо видели когда-то давным-давно на видеокассете либо не видели до появления интернета. У меня это второй вариант, даже никогда не слышал о таком фильма, да это и не удивительно, объективно это малобюджетный постапокалиптический фильм, которых было великое множество, они проигрывали по бюджету и спецэффектам более знаменитым и дорогим лентам. Но тем не менее есть в этих фильмах нечто свое, совершенно фантастическое и даже мистическое. После просмотра такого кино, если вы любитель подобных муви, частичка вас останется в этом фильме, во всем происходящим там, вместе с головными героями. И это то чем не могут похвастаться "дорогие" ленты. Сюжет оригиналом не блещет - группе людей нужно добраться из одного города в другой по очень опасной дороге. Все просто но не тупо, интересно наблюдать за злоключением героев, да и сами они совершенно не скучные, чего стоит один (мрачный)красавец Майкл Айронсайд который играет главную роль, да еще и хорошего парня! Фильмом очень доволен.
----------------------------------
Своего рода пост-апокалапсис. Чего ж хаить? В те времена фантастику снимали либо в заброшенных городах (заводах,фабриках,свалках), либо посредством компьютерной мультипликации и покадровой анимации (Чужой, Звёздные войны, Робокоп, Терминатор). Неплохой фильм
---------------------------------
Я его видела много лет назад по кабельному 1 раз. Тогда он мне безумно понравился, но 2 раза в одну реку не войдёшь. Фильм достойный, если не обращать внимание на итальянский дубляж и недостатаочно качественный синхронный перевод. Сделали бы ремейк этого фильма. чтоли, а то снимают сплошные компьютерные игры - удовольствия нет ни глазам, ни душе. Впрочем такое кино всегда в цене.
------------------------------
"Дилижанс" в постапокалиптическом антураже.
Но фильм действительно хороший. И вообще люблю Айронсайда.
------------------------------
Сюжет довольно прост - путь из точки А в Бэ, сеттинг - постапокалиптическая помойка. Итог: нормальный такой вестерн. Присутствует Майкл Айронсайт, методично выпиливающий всяких отбросов. Не шедевр, но назвать говном язык не повернется.
------------------------------
Могло выйти неплохое кино, если бы не некоторые сценарные и режиссёрские ляпы.
------------------------------
Снято по книге Роджера Желязны

Рецензия

Дилижанс Будущего
Стойкое дежавю не покидало меня при просмотре.
Фильм здорово напоминал обожаемый мною `Дилижанс` Джона Форда. Но Майкл Айронсайд сумел сделать из фильма нечто весьма запоминающееся и брутальное. Его Старк — настоящий мужик! Он крут и суров и нравится женщинам. И это при том, что сам Майкл особой красотой не блещет.
Фильм вызывает жутковатое чувство своими мрачными пейзажами и мутантами- обитателями. Атмосфера упадка и холодного отчаяния пронизывает фильм от первого и до последнего кадра.
9 из 10

MediaInfo

Общее
Уникальный идентификатор : 251377426252241341735441573365000505088 (0xBD1D880068548871A156E4E35F5D0700)
Полное имя : N:\BD-DISC\NEON_CITY-CG\Neon city 1991.x264.SATRip.4xRus.kosmoaelita.mkv
Формат : Matroska
Версия формата : Version 4
Размер файла : 1,94 Гбайт
Продолжительность : 1 ч. 43 м.
Общий поток : 2677 Кбит/сек
Название фильма : Неоновый город / Neon city / 1991 / kosmoaelita
Дата кодирования : UTC 2019-12-08 10:30:00
Программа кодирования : mkvmerge v6.6.0 ('The Edge Of The In Between') built on Dec 1 2013 17:55:00
Библиотека кодирования : libebml v1.3.0 + libmatroska v1.4.1
Attachments : Neon city 1991.x264.SATRip.4xRus.kosmoaelita.mkv.encoding.log / POSTER.jpg
Видео
Идентификатор : 1
Формат : AVC
Формат/Информация : Advanced Video Codec
Профиль формата : High@L4.1
Настройки формата : CABAC / 8 Ref Frames
Параметр CABAC формата : Да
Параметр RefFrames формата : 8 кадров
Идентификатор кодека : V_MPEG4/ISO/AVC
Продолжительность : 1 ч. 43 м.
Битрейт : 1650 Кбит/сек
Ширина : 720 пикселей
Высота : 528 пикселей
Соотношение сторон : 4:3
Режим частоты кадров : Постоянный
Частота кадров : 25,000 кадров/сек
Цветовое пространство : YUV
Субдискретизация насыщенности : 4:2:0
Битовая глубина : 8 бит
Тип развёртки : Прогрессивная
Бит/(Пиксели*Кадры) : 0.174
Размер потока : 1,16 Гбайт (60%)
Библиотека кодирования : x264 core 130 r2273 b3065e6
Настройки программы : cabac=1 / ref=8 / deblock=1:-4:-4 / analyse=0x3:0x131 / me=umh / subme=11 / psy=1 / psy_rd=0.99:0.14 / mixed_ref=1 / me_range=24 / chroma_me=1 / trellis=2 / 8x8dct=1 / cqm=0 / deadzone=21,11 / fast_pskip=1 / chroma_qp_offset=-3 / threads=6 / lookahead_threads=1 / sliced_threads=0 / nr=0 / decimate=1 / interlaced=0 / bluray_compat=0 / constrained_intra=0 / bframes=8 / b_pyramid=2 / b_adapt=2 / b_bias=0 / direct=3 / weightb=1 / open_gop=0 / weightp=2 / keyint=210 / keyint_min=21 / scenecut=40 / intra_refresh=0 / rc_lookahead=80 / rc=2pass / mbtree=1 / bitrate=1650 / ratetol=1.0 / qcomp=0.65 / qpmin=0 / qpmax=69 / qpstep=4 / cplxblur=20.0 / qblur=0.5 / ip_ratio=1.25 / aq=1:0.90
Default : Да
Forced : Нет
Аудио #1
Идентификатор : 2
Формат : AC-3
Формат/Информация : Audio Coding 3
Коммерческое название : Dolby Digital
Идентификатор кодека : A_AC3
Продолжительность : 1 ч. 43 м.
Вид битрейта : Постоянный
Битрейт : 192 Кбит/сек
Каналы : 2 канала
ChannelLayout : L R
Частота : 48,0 КГц
Частота кадров : 31,250 кадров/сек (1536 SPF)
Метод сжатия : С потерями
Размер потока : 142 Мбайт (7%)
Заголовок : Русский ПД (НТВ+) - Н.Казначеева. П.Кипнис
Язык : Russian
ServiceKind/String : Complete Main
Default : Да
Forced : Нет
Аудио #2
Идентификатор : 3
Формат : AC-3
Формат/Информация : Audio Coding 3
Коммерческое название : Dolby Digital
Идентификатор кодека : A_AC3
Продолжительность : 1 ч. 43 м.
Вид битрейта : Постоянный
Битрейт : 192 Кбит/сек
Каналы : 2 канала
ChannelLayout : L R
Частота : 48,0 КГц
Частота кадров : 31,250 кадров/сек (1536 SPF)
Метод сжатия : С потерями
Размер потока : 142 Мбайт (7%)
Заголовок : Русский ПД (НТВ) - А.Дик, М.Тарасова
Язык : Russian
ServiceKind/String : Complete Main
Default : Нет
Forced : Нет
Аудио #3
Идентификатор : 4
Формат : AC-3
Формат/Информация : Audio Coding 3
Коммерческое название : Dolby Digital
Идентификатор кодека : A_AC3
Продолжительность : 1 ч. 43 м.
Вид битрейта : Постоянный
Битрейт : 192 Кбит/сек
Каналы : 2 канала
ChannelLayout : L R
Частота : 48,0 КГц
Частота кадров : 31,250 кадров/сек (1536 SPF)
Метод сжатия : С потерями
Размер потока : 142 Мбайт (7%)
Заголовок : Русский АО (П.Карцев 2.0)
ServiceKind/String : Complete Main
Default : Нет
Forced : Нет
Аудио #4
Идентификатор : 5
Формат : AC-3
Формат/Информация : Audio Coding 3
Коммерческое название : Dolby Digital
Идентификатор кодека : A_AC3
Продолжительность : 1 ч. 43 м.
Вид битрейта : Постоянный
Битрейт : 192 Кбит/сек
Каналы : 2 канала
ChannelLayout : L R
Частота : 48,0 КГц
Частота кадров : 31,250 кадров/сек (1536 SPF)
Метод сжатия : С потерями
Размер потока : 142 Мбайт (7%)
Заголовок : Русский АО (А.Гаврилов) с VHS
Язык : Russian
ServiceKind/String : Complete Main
Default : Нет
Forced : Нет
Аудио #5
Идентификатор : 6
Формат : AC-3
Формат/Информация : Audio Coding 3
Коммерческое название : Dolby Digital
Идентификатор кодека : A_AC3
Продолжительность : 1 ч. 43 м.
Вид битрейта : Постоянный
Битрейт : 256 Кбит/сек
Каналы : 2 канала
ChannelLayout : L R
Частота : 48,0 КГц
Частота кадров : 31,250 кадров/сек (1536 SPF)
Метод сжатия : С потерями
Размер потока : 189 Мбайт (10%)
Язык : English
ServiceKind/String : Complete Main
Default : Нет
Forced : Нет

Скриншоты



























Скринлист

Файл дополнительно залит на ОБЛАКО


Last edited by kosmoaelita on 2019-12-08 23:08; edited 5 times in total
[Profile] [PM]

kosmoaelita ®

Gender: Male

Longevity: 8 years 10 months

Posts: 1729

Post 08-Dec-2019 14:08 (after 1 minute)

[Quote]

В сети везде почему то рипы с мутного итальянского ДВД с наполовину обрезанной картинкой. САТРип на голову выше его, особенно если замазать логотип канала смайлик+
До и после смайлик+

[Profile] [PM]

Трамвай-фильм

Gender: Male

Longevity: 6 years 11 months

Posts: 1896

Location: Россия

Post 08-Dec-2019 14:48 (after 39 minutes)

[Quote]

Кажись я этот фильм лет 10 назад смотрел, это там где был конвой в неоновый город с разными солнечными катаклизмами по пути, типа "сверкалок"? Подумать только, и этот малобюджетный фильм рекламировали по ТВ на кассетах, как офигенный блокбастер.
[Profile] [PM]

Guest

Gender: Unknown

Post 08-Dec-2019 16:34 (after 1 hour 46 minutes)

[Quote]

24440Подумать только, и этот малобюджетный фильм рекламировали по ТВ на кассетах, как офигенный блокбастер.
Ты не прав! Лучшая реинкарнация Дилижанса... ИМХО!..
 

kosmoaelita ®

Gender: Male

Longevity: 8 years 10 months

Posts: 1729

Post 08-Dec-2019 16:49 (after 14 minutes)

[Quote]

Да. мне тоже понравился. если честно.
Только не с переводом Гаврилова смайлик+
[Profile] [PM]

Трамвай-фильм

Gender: Male

Longevity: 6 years 11 months

Posts: 1896

Location: Россия

Post 08-Dec-2019 20:52 (after 4 hours)

[Quote]

Я смотрел с переводом НТВ+. ФИльм довольно средненький, в 1990-е, да зашел бы, но в то время когда смотрел я уже было другое восприятие.
[Profile] [PM]
Display posts:    
Reply to topic

Current time is: 27-Jul 04:46

All times are UTC + 3



You cannot post new topics in this forum
You cannot reply to topics in this forum
You cannot edit your posts in this forum
You cannot delete your posts in this forum
You cannot vote in polls in this forum
You cannot attach files in this forum
You cannot download files in this forum