Убийцы из космоса / Killers from Space / Guerra tra i pianeti (В. Ли Уайлдер) [1954 г., Фантастика, DVDRip] ПМ (Петрополь)

Reply to topic
 
Author Message

admin ®

Gender: Male

Longevity: 7 years 2 months

Posts: 4723

Post 27-Oct-2012 21:25

[Quote]

Убийцы из космоса / Killers from Space / Guerra tra i pianeti
Год выпуска: 1954
Страна: США, Planet Filmplays
Жанр: Фантастика
Продолжительность: 01:08:22
Перевод: Профессиональный (двухголосый) студия Петрополь
Режиссер: В. Ли Уайлдер
В ролях: Питер Грейвз, Джеймс Сиэй, Стив Пендлтон, Джон Фредерик, Шепард Менкен, Джек Дэйли
Описание: Самолет ученого-ядерщика и по совместительству лётчика Мартина, проводившего после проведения ядерных испытаний рекогносцировку местности, загадочным образом исчезает. Позже невредимый Мартин появляется на базе и утверждает, что во время полёта был похищен инопланетянами, которые готовятся к захвату Земли.
Классический пример трэша 50-х годов. На DVD у нас не издавался.
Занимает 16 место среди самых худших фильмов

Качество: DVDRip
Формат: MKV
Видео: xvid, 1267 кбит/с, 544x416, 25 к/с
Аудио 1: Русский (Петрополь) (AC3, 2 ch, 192 Кбит/с)
Аудио 2: Английский (AC3, 2 ch, 192 Кбит/с)


Релиз

Рип найден на CG (рип с итальянского ДВД)
Синхронизация русской дорожки - sasha20072007
Сравнение с Rutrackerом
Для Украины: рип и оригинальный ДВД дополнительно залиты в файлохранилище
Для удаления и добавления дорожек в mkv используйте бесплатную mkvmerge GUI 5.80

Дополнительно

слоган «Earth attacked!»
рейтинг MPAA нет возрастных ограничений
Also Known As (AKA)
Asesinos del espacio Chile
Guerra tra i pianeti Italy
Les Tueurs Venus de l'Espace France (TV title)

Рецензия

MediaInfo

Общее
Уникальный идентификатор : 240245570958433582499738870451483091086 (0xB4BD9D294E44F782BF19ABC8345AA08E)
Полное имя : F:\Убийцы из космоса Killers from Space 1954.XviD.DVDRip.mkv
Формат : Matroska
Версия формата : Version 4 / Version 2
Размер файла : 920 Мбайт
Продолжительность : 1 ч. 8 м.
Общий поток : 1881 Кбит/сек
Название фильма : Убийцы из космоса / Killers from Space / 1954
Дата кодирования : UTC 2010-02-22 21:41:31
Программа кодирования : mkvmerge v5.8.0 ('No Sleep / Pillow') built on Sep 30 2012 10:57:14
Библиотека кодирования : libebml v1.3.0 + libmatroska v1.4.0
Attachment : Yes / Yes / Yes / Yes
Видео
Идентификатор : 1
Формат : MPEG-4 Visual
Профиль формата : Advanced Simple@L5
Параметр BVOP формата : Да
Параметр QPel формата : Нет
Параметр GMC формата : Без точки перехода
Параметр матрицы формата : Default (H.263)
Идентификатор кодека : V_MS/VFW/FOURCC / XVID
Идентификатор кодека/Подсказка : XviD
Продолжительность : 1 ч. 8 м.
Битрейт : 1267 Кбит/сек
Ширина : 544 пикселя
Высота : 416 пикселей
Соотношение сторон : 4:3
Режим частоты кадров : Постоянный
Частота кадров : 25,000 кадров/сек
Цветовое пространство : YUV
Субдискретизация насыщенности : 4:2:0
Битовая глубина : 8 бит
Тип развёртки : Прогрессивная
Метод сжатия : С потерями
Бит/(Пиксели*Кадры) : 0.224
Размер потока : 620 Мбайт (67%)
Библиотека кодирования : XviD 1.1.0 (UTC 2005-11-22)
Default : Да
Forced : Нет
Аудио #1
Идентификатор : 2
Формат : AC-3
Формат/Информация : Audio Coding 3
Расширение режима : CM (complete main)
Параметр Endianness формата : Big
Идентификатор кодека : A_AC3
Продолжительность : 1 ч. 8 м.
Вид битрейта : Постоянный
Битрейт : 192 Кбит/сек
Каналы : 2 канала
Расположение каналов : Front: L R
Частота : 48,0 КГц
Битовая глубина : 16 бит
Метод сжатия : С потерями
Размер потока : 93,9 Мбайт (10%)
Заголовок : Русский ПМ (Петрополь)
Язык : Russian
Default : Да
Forced : Нет
Аудио #2
Идентификатор : 3
Формат : AC-3
Формат/Информация : Audio Coding 3
Расширение режима : CM (complete main)
Параметр Endianness формата : Big
Идентификатор кодека : A_AC3
Продолжительность : 1 ч. 8 м.
Вид битрейта : Постоянный
Битрейт : 192 Кбит/сек
Каналы : 2 канала
Расположение каналов : Front: L R
Частота : 48,0 КГц
Битовая глубина : 16 бит
Метод сжатия : С потерями
Размер потока : 93,9 Мбайт (10%)
Язык : English
Default : Нет
Forced : Нет
Аудио #3
Идентификатор : 4
Формат : MPEG Audio
Версия формата : Version 1
Профиль формата : Layer 3
Идентификатор кодека : A_MPEG/L3
Идентификатор кодека/Подсказка : MP3
Продолжительность : 1 ч. 8 м.
Вид битрейта : Постоянный
Битрейт : 192 Кбит/сек
Каналы : 1 канал
Частота : 48,0 КГц
Метод сжатия : С потерями
Размер потока : 93,9 Мбайт (10%)
Библиотека кодирования : LAME3.97
Настройки программы : -m m -V 4 -q 2 -lowpass 20.5 -b 192
Язык : English
Default : Нет
Forced : Нет

Скриншоты




Скринлист

cd Рип дополнительно залит на ОБЛАКО cd2
[Profile] [PM]

Трамвай-фильм

Gender: Male

Longevity: 5 years 3 months

Posts: 1646

Location: Россия

Post 25-Oct-2014 15:13 (after 1 year 11 months)

[Quote]

Говорит майский день...
Кхм, как бы MayDay - это код сигнала бедствия. В целом кино не плохо, несмотря на массу киноляпов.
[Profile] [PM]
Quick Reply

Name:

            
Heads necessary to send messages to enable JavaScript
Display posts:    
Reply to topic

Current time is: 14-Nov 11:53

All times are UTC + 3



You cannot post new topics in this forum
You can reply to topics in this forum
You cannot edit your posts in this forum
You cannot delete your posts in this forum
You cannot vote in polls in this forum
You cannot attach files in this forum
You cannot download files in this forum