Черная дыра / The Black Hole (Тибор Такач / Tibor Takacs) [2006, США, фантастика, триллер, драма, WEB-DL-720p] ПМ (R5 - CP Digital), ПД (укр. канал 2+2)

Reply to topic
 
Author Message

admin ®

Gender: Male

Longevity: 7 years 3 months

Posts: 4812

Post 01-Dec-2019 01:20

[Quote]

Черная дыра / The Black Hole
Страна: Германия, США, Active Entertainment, Equity Pictures Medienfonds GmbH & Co. KG III, Millennium Films
Жанр: фантастика, триллер, драма
Год выпуска: 2006
Продолжительность: 01:30:05
Перевод 1: Профессиональный (многоголосый) R5 CP Digital
Перевод 2: Профессиональный (двухголосый) Украина канал 2+2
Режиссер: Тибор Такач / Tibor Takacs
В ролях:
Kristy Swanson ... Shannon Muir
Judd Nelson ... Eric
David Selby ... Ryker
Heather Dawn ... Alicia
Jennifer Lyn Quackenbush ... Elizabeth (as Jennifer Quackenbush)
Christa Campbell ... Advisor Coldwell
Peter Mayer ... General Tate
Julia Sinks ... Kayley
James Anthony ... Tolland (as Jim Anthony)
Kevin Beyer ... Dr. Hauser
Dan Buran ... Kent
Tim Snay ... Hayes
Adrian Rice ... Lt. Samson
Greg Carr ... Guardsman
Chris Nolte ... Hendricks
Описание: Неудачный эксперимент с ускорением частиц в одной из квантовых лабораторий в Сент-Луисе, штат Миссури, приводит к образованию Черной дыры на Земле и смерти ведущего ученого Уильяма Хаузера. Коллега и давняя любовь Эрика Брайса, Шеннон Мур обращается к физику за помощью. Брайс и Шеннон приступают к работе, пытаясь найти в записях Хаузера подсказку: как уничтожить Черную дыру. Но они еще не знают, что возникновение Черной дыры привело к созданию еще одного существа, которое вышло за пределы лаборатории и разгуливает по улицам Сент-Луиса, поглощая энергию из электрической сети.
Качество видео: WEB-DL-720p
Формат: MKV
Видео: x264, 1949 кбит/с, 1280x716, 23.976 к/с
Аудио 1: Русский ПМ (AC3, 2 ch, 192 Кбит/с)
Аудио 1: Українська ПЛ (AC3, 2 ch, 192 Кбит/с)
Аудио 2: Английский (AC3, 2 ch, 192 Кбит/с)
Субтитры : Русские ()
Работа над релизом:
Видеоряд найден на rarbg2018.org
Синхронизация русской и украинской дорожек - kosmoaelita



Пример русского перевода

Дополнительно

слоган «No force from this world can stop it!»
бюджет $3 500 000

Знаете ли вы, что...

Отзывы

классный фильм не в смысле сюжета, а в правде. он показал насколько шишки бывают шишками. им по 10 раз говорят что нельзя, надо так. а они та нафиг у нас есть ядерная бомба, которая лежит и пылится на базе надо бы устроить фееверк, всее решится! чем закончится это нас не колышит. если подохнем то это бог решил.
-----------------------
Обалденная комедия, ошибочка просто с жанром вышла, вот народ, настраиваясь на фантастику, и обламывается. Да и название стоило бы поменять на "чорная-пречорная дыра смайлик+"
-----------------------
филм конечно обсолютно не правдоподобный, не реальный во многих аспектах. но как бы в нем есть доля правды. в действиях людей просвечивается наша наивность.
в основном филм даже не стоит смотреть, так как сюжет никакой... если о филме подумать, то понятна только поверхность. все остальное не продумано, или может не дорасказано. все же думаю что первое.
фильм смотреть так же не стоит, так как практически всем понятно, насколько человечество наивно, глубоко веря, что всесильно.... филм ток в этом и может быть интересен, лично для меня, но и ета тема уже протерта до дыр
----------------------
Даааа...!! Давно приличной фантастики не было!!! Но такого отстоя я уже давно не смотрел. Видимо многие перепутали эту в прямом смысле "ДЫРУ" с продолжением эпопеи имени Винса Дизеля. Обломитесь - это не то. ;)) Сюжет до неприличия ... даже не знаю как это назвать.. ;)) Ученый алкоголик , уволенный год назад с работы спасает мир. Иначинает , как это заведено с соединенных штатов. Видимо у них там реально проблемное место.
Графика времен первого терминатора , только сравнивать их тут не придется. "Эффектно" прорисованные электрические разряды и что то ходит и заряжается от электростолбов, ака энерджайзер. Вот суть фильма. Ну про всягие баги в сценарии и самом фильме не говорю.
Типа военные притащили в лабораторию специальные огромные эл.часы , чтоб время до конца света нагляднее показывало. Причем скока осталось они там с потолка сами взяли. тетка одна проинтуичила. Хотя все сошлось. Интересно узнать бюджет шедевра.
Когда солдаты прячутся от эл. разрядов под железной трубой это , поверьте впечатляет. Все хотелось сказать "ну .. кадаж его наконец!!"
Вобщем получайте удовольствие.
Пойду может с ван-дамом че нить качну, чтоб отпустило
-----------------------------------
тупая фильма, а главная тёла похожа на Монику Яблински, вот в других фильмах бы ей неплохо бы сыграть, такие сочные губы и жаждующий взгляд смайлик+
Да а денечки за такую работу плотять и видать неплохие, вот жизнь
-------------------------
фильм низкобюджетный сделаный на поток вызывает ошушения что это вообще для детей ,страдает все от содержания до самих эффектов в общем дешевый аналог утреней фантастики для детей в ограниченом количестве,актеры играют средне непонятно как и действие само их внимание не сильно превликает. да и вообше похоже что фильм делался для демострации дешевого трекинга видео с интегрированием графики 3д.не для ценителей фантастики фильм
-------------------------------
В общем глянул кино, есть пару тройку неплохих моментов, в остальном - шаблонка и дешевка. Бравые ребята, стереотипы - пьянчуга, стервозная бывшая жена, любовь к дочери (у всех американцев поголвно рождаются сначала девочки - намек на выскоий статус женщины в еврейском обществе ? Или следствие?), хороший и плохой вояка..
В общем для детей типа. Несерьезно.
---------------------------
Семейная фантастика для зрителей 12+ .
Инженеры будут плеваться или смеяться через 10 минут просмотра

Рецензия

Интересный жанр фантастика. Каким бы ни был фильм, а сказать всегда есть чего. В данном случае достаточно просто переложить сюжет своими словами, «избегая спойлеров», ибо чего бы ты не сказал — все не спойлер, а штамп. Кроме того бюджет Черной дыры не велик, а следовательно нужно быть снисходительным, что оставляет лишний повод слегка пошутить.
В фильме затронуты глобальные вопросы происхождения черных дыр, а так же влияние, которое они могут оказать на жителей Земли и других обитателей галактических систем. Перед нами ученый, он гений в своей области и даже более того — единственный ученый, которым может воспользоваться президент. У ученого есть конфликты в семье — во-первых, с его женой, во-вторых, с его дочерью, истеричной молодой особой.
Кроме того, он конфликтует с целым взводом и маленькой тележкой бестолковых военных. Это то, что называется драматическим конфликтом и есть обязательное условие сущестования любого фильма (а то если будет все просто, то зачем снимать). Если же я буду рассказывать научную подоплеку этой истории, то это и в самом деле будет взаправдешний спойлер. Но научная основа — не художественная.
Рассуждая так мы приходим к выводу, что это вовсе не было бы спойлером! Получается парадокс. Чтобы долго и нудно не вникать в суть системы и не городить огород на общинном пастбище, замечу, что много может смотрящий потерять, не узнав. Ну, очень уж забавно было. Так же не открою я концовку. Очень трогательно было.
P.S. Оценку я ставить не буду — и так все ясно.

MediaInfo

Общее
Уникальный идентификатор : 171161434593411648550685676304578174421 (0x80C47E43B7713A93BF214C7DDE20DDD5)
Полное имя : The Black Hole 2006.x264.WEBDL.720p.Rus.Ukr.kosmoaelita.mkv
Формат : Matroska
Версия формата : Version 4
Размер файла : 1,79 Гбайт
Продолжительность : 1 ч. 30 м.
Общий поток : 2838 Кбит/сек
Название фильма : Черная дыра / The Black Hole / 2006 / kosmoaelita
Дата кодирования : UTC 2019-11-30 21:50:29
Программа кодирования : mkvmerge v7.8.0 ('River Man') 32bit built on Mar 27 2015 16:18:02
Библиотека кодирования : libebml v1.3.1 + libmatroska v1.4.2
Attachments : poster _.jpg
Видео
Идентификатор : 1
Формат : AVC
Формат/Информация : Advanced Video Codec
Профиль формата : High@L4
Настройки формата : CABAC / 4 Ref Frames
Параметр CABAC формата : Да
Параметр RefFrames формата : 4 кадра
Идентификатор кодека : V_MPEG4/ISO/AVC
Продолжительность : 1 ч. 30 м.
Битрейт : 1949 Кбит/сек
Ширина : 1280 пикселей
Высота : 716 пикселей
Соотношение сторон : 16:9
Режим частоты кадров : Постоянный
Частота кадров : 23,976 (24000/1001) кадра/сек
Цветовое пространство : YUV
Субдискретизация насыщенности : 4:2:0
Битовая глубина : 8 бит
Тип развёртки : Прогрессивная
Бит/(Пиксели*Кадры) : 0.089
Размер потока : 1,23 Гбайт (69%)
Заголовок : kosmoaelita
Библиотека кодирования : x264 core 148 r2643 5c65704
Настройки программы : cabac=1 / ref=4 / deblock=1:0:0 / analyse=0x3:0x113 / me=umh / subme=8 / psy=1 / psy_rd=1.00:0.00 / mixed_ref=1 / me_range=16 / chroma_me=1 / trellis=0 / 8x8dct=1 / cqm=0 / deadzone=21,11 / fast_pskip=1 / chroma_qp_offset=-2 / threads=22 / lookahead_threads=5 / sliced_threads=0 / nr=0 / decimate=1 / interlaced=0 / bluray_compat=0 / constrained_intra=0 / bframes=4 / b_pyramid=2 / b_adapt=2 / b_bias=0 / direct=3 / weightb=1 / open_gop=0 / weightp=2 / keyint=96 / keyint_min=48 / scenecut=40 / intra_refresh=0 / rc_lookahead=40 / rc=crf / mbtree=1 / crf=1.0 / qcomp=0.60 / qpmin=0 / qpmax=69 / qpstep=4 / vbv_maxrate=2400 / vbv_bufsize=2400 / crf_max=0.0 / nal_hrd=none / filler=0 / ip_ratio=1.41 / aq=1:1.00
Язык : English
Default : Да
Forced : Нет
Statistics Tags Issue : mkvmerge v36.0.0 ('Is That Jazz?') 64-bit 2019-09-07 02:53:07 / mkvmerge v7.8.0 ('River Man') 32bit built on Mar 27 2015 16:18:02 2019-11-30 21:50:29
FromStats_BitRate : 2003307
FromStats_Duration : 01:30:04.566000000
FromStats_FrameCount : 129580
FromStats_StreamSize : 1353375965
Аудио #1
Идентификатор : 3
Формат : AC-3
Формат/Информация : Audio Coding 3
Коммерческое название : Dolby Digital
Идентификатор кодека : A_AC3
Продолжительность : 1 ч. 30 м.
Вид битрейта : Постоянный
Битрейт : 448 Кбит/сек
Каналы : 6 каналов
ChannelLayout : L R C LFE Ls Rs
Частота : 48,0 КГц
Частота кадров : 31,250 кадров/сек (1536 SPF)
Метод сжатия : С потерями
Задержка видео : -83 мс.
Размер потока : 289 Мбайт (16%)
Заголовок : Русский ПМ (R5 CP Digital)
Язык : Russian
ServiceKind/String : Complete Main
Default : Да
Forced : Нет
Аудио #2
Идентификатор : 4
Формат : AC-3
Формат/Информация : Audio Coding 3
Коммерческое название : Dolby Digital
Идентификатор кодека : A_AC3
Продолжительность : 1 ч. 30 м.
Вид битрейта : Постоянный
Битрейт : 192 Кбит/сек
Каналы : 2 канала
ChannelLayout : L R
Частота : 48,0 КГц
Частота кадров : 31,250 кадров/сек (1536 SPF)
Метод сжатия : С потерями
Задержка видео : -83 мс.
Размер потока : 124 Мбайт (7%)
Заголовок : Украинский ПД (канал 2+2)
Язык : Ukrainian
ServiceKind/String : Complete Main
Default : Нет
Forced : Нет
Аудио #3
Идентификатор : 5
Формат : AC-3
Формат/Информация : Audio Coding 3
Коммерческое название : Dolby Digital
Идентификатор кодека : A_AC3
Продолжительность : 1 ч. 30 м.
Вид битрейта : Постоянный
Битрейт : 192 Кбит/сек
Каналы : 2 канала
ChannelLayout : L R
Частота : 48,0 КГц
Частота кадров : 31,250 кадров/сек (1536 SPF)
Метод сжатия : С потерями
Задержка видео : -83 мс.
Размер потока : 124 Мбайт (7%)
Язык : English
ServiceKind/String : Complete Main
Default : Нет
Forced : Нет
Текст
Идентификатор : 2
Формат : UTF-8
Идентификатор кодека : S_TEXT/UTF8
Идентификатор кодека/Информация : UTF-8 Plain Text
Заголовок :
Default : Да
Forced : Нет

Скриншоты









Скринлист

Файл дополнительно залит на ОБЛАКО
[Profile] [PM]
Quick Reply

Name:

            
Heads necessary to send messages to enable JavaScript
Display posts:    
Reply to topic

Current time is: 13-Dec 02:50

All times are UTC + 3



You cannot post new topics in this forum
You can reply to topics in this forum
You cannot edit your posts in this forum
You cannot delete your posts in this forum
You cannot vote in polls in this forum
You cannot attach files in this forum
You cannot download files in this forum