30-футовая невеста из Кэнди Рока / The 30 Foot Bride of Candy Rock (Сидни Миллер / Sidney Miller) [1959, США, комедия, Sci-Fi, WEBRip-1080p] АО (Horror Maker) + Original Eng + English Sub

Reply to topic
 
Author Message

Darth_47 ®

Gender: Male

Longevity: 7 months 6 days

Posts: 410

Post 27-Nov-2019 22:38

[Quote]

30-футовая невеста из Кэнди Рока / The 30 Foot Bride of Candy Rock
Страна: США
Жанр: комедия, Sci-Fi
Год выпуска: 1959
Продолжительность: 01:13:34
Перевод: Авторский (одноголосый) Horror Maker
Режиссер: Сидни Миллер / Sidney Miller
В ролях: Лу Костелло, Дороти Провайн, Гэйл Гордон, Джимми Конлин, Чарльз Лэйн, Роберт Бертон, Уилл Райт, Ленни Кент, Рут Перротт, Бобби Барбер-Описание: В одном из своих редких спектаклей без Бада Эббота, Лу Костелло играет мусорщика и изобретателя. Когда радиация в соседней пещере превращает его подругу в великаншу, начинается свистопляска, в ходе которой он пытается уменьшить ее обратно, используя одно из своих изобретений.

-Качество видео: WEBRip-1080p
Формат видео: MKV
Видео: MPEG4 Video (H264) 1920x1080, 23.976fps, 14.6 Mb/s
Аудио 1: Dolby AC3 48000Hz stereo 640kbps Русский АО (Horror Maker)
Аудио 2: Dolby AC3 48000Hz stereo 640kbps English
Субтитры 1: UTF-8 [S: English]
Субтитры 2: UTF-8 [S: English SDH - для слабослышащих]-Релиз

Работа над релизом:
Перевод и озвучка - Horror Maker
Спонсоры перевода и русской озвучки - Darth_47, snorrinort, Steve Salmon, PonchoUsatiy, Ввикторрр, pompilius, killer snowman, Dionisiy22, -Holo-
Сведение звука и сборка релиза - Darth_47
-Пример русского перевода

MediaInfo

General
Unique ID                      : 195471248898214593755775949916358186329 (0x930E64A59BC27BD0A88B5D543A921559)
Complete name                  : The 30 Foot Bride of Candy Rock 1959.x264.BDRip.1080p.Rus.Eng.kosmoaelita.mkv
Format                         : Matroska
Format version                 : Version 1
File size                      : 8.34 GiB
Duration                       : 1 h 13 min
Overall bit rate mode          : Variable
Overall bit rate               : 16.2 Mb/s
Encoded date                   : UTC 2019-11-27 19:12:04
Writing application            : mkvmerge v2.4.2 ('Oh My God') built on Jan 18 2009 17:30:28
Writing library                : libebml v0.7.7 + libmatroska v0.8.1
Video
ID                             : 1
Format                         : AVC
Format/Info                    : Advanced Video Codec
Format profile                 : High@L4
Format settings                : CABAC / 4 Ref Frames
Format settings, CABAC         : Yes
Format settings, Reference fra : 4 frames
Codec ID                       : V_MPEG4/ISO/AVC
Duration                       : 1 h 13 min
Bit rate mode                  : Variable
Bit rate                       : 14.6 Mb/s
Maximum bit rate               : 15.0 Mb/s
Width                          : 1 920 pixels
Height                         : 1 080 pixels
Display aspect ratio           : 16:9
Frame rate mode                : Constant
Frame rate                     : 23.976 (24000/1001) FPS
Color space                    : YUV
Chroma subsampling             : 4:2:0
Bit depth                      : 8 bits
Scan type                      : Progressive
Bits/(Pixel*Frame)             : 0.294
Stream size                    : 7.51 GiB (90%)
Title                          : kosmoaelita
Writing library                : x264 core 148 r2623 d5b2374
Encoding settings              : cabac=1 / ref=4 / deblock=1:-1:-1 / analyse=0x3:0x133 / me=umh / subme=9 / psy=1 / psy_rd=1.00:0.15 / mixed_ref=1 / me_range=24 / chroma_me=1 / trellis=2 / 8x8dct=1 / cqm=0 / deadzone=21,11 / fast_pskip=1 / chroma_qp_offset=-3 / threads=34 / lookahead_threads=5 / sliced_threads=0 / nr=150 / decimate=1 / interlaced=0 / bluray_compat=0 / constrained_intra=0 / bframes=8 / b_pyramid=2 / b_adapt=2 / b_bias=0 / direct=3 / weightb=1 / open_gop=0 / weightp=2 / keyint=120 / keyint_min=61 / scenecut=0 / intra_refresh=0 / rc_lookahead=120 / rc=crf / mbtree=1 / crf=18.0 / qcomp=0.60 / qpmin=0 / qpmax=69 / qpstep=4 / vbv_maxrate=15000 / vbv_bufsize=31250 / crf_max=0.0 / nal_hrd=vbr / filler=0 / ip_ratio=1.40 / aq=3:1.00
Language                       : English
Default                        : Yes
Forced                         : No
Color range                    : Limited
Color primaries                : BT.709
Transfer characteristics       : BT.709
Matrix coefficients            : BT.709
Statistics Tags Issue          : mkvmerge v7.9.0 ('Birds') 64bit 2019-11-27 07:01:03 / mkvmerge v2.4.2 ('Oh My God') built on Jan 18 2009 17:30:28 2019-11-27 19:12:04
FromStats_BitRate              : 14940230
FromStats_Duration             : 01:13:34.077000000
FromStats_FrameCount           : 105832
FromStats_StreamSize           : 8243416039
Audio #1
ID                             : 2
Format                         : AC-3
Format/Info                    : Audio Coding 3
Commercial name                : Dolby Digital
Codec ID                       : A_AC3
Duration                       : 1 h 13 min
Bit rate mode                  : Constant
Bit rate                       : 640 kb/s
Channel(s)                     : 2 channels
Channel layout                 : L R
Sampling rate                  : 48.0 kHz
Frame rate                     : 31.250 FPS (1536 SPF)
Bit depth                      : 16 bits
Compression mode               : Lossy
Stream size                    : 337 MiB (4%)
Title                          : Русский (Horror Maker для kosmoaelita.com)
Language                       : Russian
Service kind                   : Complete Main
Default                        : Yes
Forced                         : No
Audio #2
ID                             : 3
Format                         : AC-3
Format/Info                    : Audio Coding 3
Commercial name                : Dolby Digital
Codec ID                       : A_AC3
Duration                       : 1 h 13 min
Bit rate mode                  : Constant
Bit rate                       : 640 kb/s
Channel(s)                     : 2 channels
Channel layout                 : L R
Sampling rate                  : 48.0 kHz
Frame rate                     : 31.250 FPS (1536 SPF)
Bit depth                      : 16 bits
Compression mode               : Lossy
Stream size                    : 337 MiB (4%)
Language                       : English
Service kind                   : Complete Main
Default                        : No
Forced                         : No
Text #1
ID                             : 4
Format                         : UTF-8
Codec ID                       : S_TEXT/UTF8
Codec ID/Info                  : UTF-8 Plain Text
Title                          : Рекламка
Language                       : Russian
Default                        : Yes
Forced                         : No
Text #2
ID                             : 5
Format                         : UTF-8
Codec ID                       : S_TEXT/UTF8
Codec ID/Info                  : UTF-8 Plain Text
Language                       : English
Default                        : No
Forced                         : No
Statistics Tags Issue          : mkvmerge v7.9.0 ('Birds') 64bit 2019-11-27 07:01:03 / mkvmerge v2.4.2 ('Oh My God') built on Jan 18 2009 17:30:28 2019-11-27 19:12:04
FromStats_BitRate              : 71
FromStats_Duration             : 01:11:53.409000000
FromStats_FrameCount           : 1146
FromStats_StreamSize           : 38487
Text #3
ID                             : 6
Format                         : UTF-8
Codec ID                       : S_TEXT/UTF8
Codec ID/Info                  : UTF-8 Plain Text
Title                          : English SDH - для слабослышащих
Language                       : English
Default                        : No
Forced                         : No
Statistics Tags Issue          : mkvmerge v7.9.0 ('Birds') 64bit 2019-11-27 07:01:03 / mkvmerge v2.4.2 ('Oh My God') built on Jan 18 2009 17:30:28 2019-11-27 19:12:04
FromStats_BitRate              : 75
FromStats_Duration             : 01:11:54.643000000
FromStats_FrameCount           : 1255
FromStats_StreamSize           : 40723

Скриншоты













Last edited by Darth_47 on 2019-11-27 23:38; edited 4 times in total
[Profile] [PM]

Darth_47 ®

Gender: Male

Longevity: 7 months 6 days

Posts: 410

Post 27-Nov-2019 22:42 (after 3 minutes)

[Quote]

Фильм неплох. Большую свою часть. Спецэффекты для 59-го года довольно изобретательны, хоть все же и простоваты. Но смотреть увлекательно. Вплоть до развязки. Там создателей понесло куда-то не туда, и начала твориться просто какая-то вакханалия! Концовка разочаровала. А из-за нее и общее впечатление о фильме осталось смазанным. Спойлерить, конечно, не буду, но, кто увидит, тот поймет.
[Profile] [PM]

admin

Gender: Male

Longevity: 7 years 3 months

Posts: 4812

Post 27-Nov-2019 23:18 (after 36 minutes)

[Quote]

Спасибо. Но WEBRip все же.
На BD пока не выходил
https://www.blu-ray.com/search/?quicksearch=1&q...ion=bluraymovies
[Profile] [PM]

Darth_47 ®

Gender: Male

Longevity: 7 months 6 days

Posts: 410

Post 27-Nov-2019 23:22 (after 4 minutes)

[Quote]

24044
Спасибо. Но WEBRip все же.
На BD пока не выходил
https://www.blu-ray.com/search/?quicksearch=1&q...ion=bluraymovies
Да что же это такое! Опять на rarbg напутали что ли? Что предлагаешь, обновить торрент? В названии файла получается ошибка.
[Profile] [PM]

admin

Gender: Male

Longevity: 7 years 3 months

Posts: 4812

Post 27-Nov-2019 23:28 (after 5 minutes)

[Quote]

Не вижу на рабре блюра, только вэбки
http://rarbg2018.org/torrents.php?imdb=tt0052529
[Profile] [PM]

Darth_47 ®

Gender: Male

Longevity: 7 months 6 days

Posts: 410

Post 27-Nov-2019 23:31 (after 3 minutes)

[Quote]

24046
Не вижу на рабре блюра, только вэбки
http://rarbg2018.org/torrents.php?imdb=tt0052529
Виноват. Похоже, это я как-то в глаза продолбился. Реально же WEBRip везде. А я перфекционист. Придется обновлять торрент.-Обновлено. Кто уже скачал и хочет остаться на раздаче, или кто не успел докачать - просто переименуйте файл ( The 30 Foot Bride of Candy Rock 1959.x264.WEBRip.1080p.Rus.Eng.kosmoaelita.mkv ). Он нормально прохэшируется. Кроме названия, он остался неизменным.
[Profile] [PM]

Steve Salmon

Gender: Male

Longevity: 3 months 1 day

Posts: 23

Post 29-Nov-2019 07:36 (after 1 day 8 hours)

[Quote]

Что-то не качает смайлик-
[Profile] [PM]

pompilius

Gender: Male

Longevity: 2 years 1 month

Posts: 242

Post 29-Nov-2019 10:46 (after 3 hours)

[Quote]

24047
24046
Не вижу на рабре блюра, только вэбки
http://rarbg2018.org/torrents.php?imdb=tt0052529
Виноват. Похоже, это я как-то в глаза продолбился. Реально же WEBRip везде. А я перфекционист. Придется обновлять торрент.-Обновлено. Кто уже скачал и хочет остаться на раздаче, или кто не успел докачать - просто переименуйте файл ( The 30 Foot Bride of Candy Rock 1959.x264.WEBRip.1080p.Rus.Eng.kosmoaelita.mkv ). Он нормально прохэшируется. Кроме названия, он остался неизменным.
Переименовал но толку никакого, хеш не совпадает. Приходится перекачивать.
[Profile] [PM]

PonchoUsatiy

Gender: Unknown

Longevity: 3 months 1 day

Posts: 74

Post 29-Nov-2019 11:32 (after 46 minutes)

[Quote]

тоже хеш не совпал, перекачал, сейчас на раздаче
[Profile] [PM]

Darth_47 ®

Gender: Male

Longevity: 7 months 6 days

Posts: 410

Post 29-Nov-2019 20:30 (after 8 hours)

[Quote]

Странно. Я проверял перед заменой торрента, у меня пошла хэшировка. Правда, я не дождался ее окончания...
Ну, да и хрен с ней))
[Profile] [PM]
Quick Reply

Name:

            
Heads necessary to send messages to enable JavaScript
Display posts:    
Reply to topic

Current time is: 13-Dec 04:04

All times are UTC + 3



You cannot post new topics in this forum
You can reply to topics in this forum
You cannot edit your posts in this forum
You cannot delete your posts in this forum
You cannot vote in polls in this forum
You cannot attach files in this forum
You cannot download files in this forum