Мозговзлом / Brainjacked (Эндрю Эллан / Andrew Allan) [2009, USA, Ужасы, Фантастика, DVDRip] ЛО (Den904), СТ (Chup)

Reply to topic
 
Author Message

snorrinort ®

Gender: Male

Longevity: 2 years 7 months

Posts: 147

Post 23-Nov-2019 05:16

[Quote]

Мозговзлом / Brainjacked
Страна: USA, Film Ranch International
Жанр: Ужасы, Фантастика
Год выпуска: 2009
Продолжительность: 01:32:55
Перевод: Профессиональный (одноголосый) Den904 по субтитрам от Chup
Режиссер: Эндрю Эллан / Andrew Allan
В ролях:
Christopher Jackson ... Tristan
Rod Grant ... Dr. Karas
Somali Rose ... Laney
Christopher Sarlls ... Zane
Krista Grotte Saxon ... Heaven
Stephen Biro ... Dwight
Kevin Anthony Brooks ... Mugger
Cyndi Crotts ... Jane
Описание: Тристан, страдающий от изнурительной мигрени, уходит из дома. Случайное знакомство на улице приводит его в обитель для таких же беглецов как и он, известное как "Сад".
Возглавляет его некий доктор, "Благодетель", который готов "помочь" всем страждущим с решением проблем с головными болями хирургическим путем трепанации, в том числе и Тристану.
Мигрени уходят, а вместе с этим проявляются странности вокруг этого тайного места беглецов и самого доктора.
К сожалению, оказывается, что доктор совершенно не в своем уме и фактически во время операций внедряет устройства в мозг людей, позволяющие полностью подчинить их разум, отключив его и координируя всю жизнедеятельность жертв во имя своих целей.
Сможет ли Тристан преодолеть контроль над своим разумом или же он будет вынужден прожить остаток своей жизни в качестве марионетки в руках психопата?

Релиз

Качество: DVDRip
Формат: MKV
Видео: AVC, 1471 Кбит/сек, 716x480, 23,976 кадра/сек
Аудио 1: Русский ЛО (den904)(AC-3, 2 ch, 192 Кбит/с)
Аудио 2: Английский (AC-3, 2 ch, 192 Кбит/с)
Субтитры : Русские (Субтитры : Русские () )
Работа над релизом:
Релиз kosmoaelita.
Видеоряд найден на CG.
Перевод на слух с англ. по заказу kosmoaelita - Chup
Русская озвучка - den904
Релиз увидел свет благодаря финансовой поддержке: Snorrinort, PonchoUsatiy, killer snowman, Darth_47, Red_Claw, Steve Salmon, pompilius, zenya_1985, -Holo-, 4st, Joker777



Пример русского перевода

Дополнительно

Winner "Best Horror Film" at the 2009 Melbourne International Filmmakers Festival.

MediaInfo

Общее
Уникальный идентификатор : 252475425279182016639213531125848259419 (0xBDF0FF88823BF2E3BA0E70BDC348BB5B)
Полное имя : N:\BD-DISC\МОЗГИ.rar\Brainjacked 2009.x264.DVDRip.Rus.kosmoaelita.mkv
Формат : Matroska
Версия формата : Version 4
Размер файла : 1,46 Гбайт
Продолжительность : 1 ч. 32 м.
Общий поток : 2243 Кбит/сек
Название фильма : Brainjacked / 2009 / Релиз kosmoaelita.com
Дата кодирования : UTC 2019-11-25 06:38:46
Программа кодирования : mkvmerge v7.8.0 ('River Man') 32bit built on Mar 27 2015 16:18:02
Библиотека кодирования : libebml v1.3.1 + libmatroska v1.4.2
Attachments : poster.jpg
Видео
Идентификатор : 1
Формат : AVC
Формат/Информация : Advanced Video Codec
Профиль формата : High@L4.1
Настройки формата : CABAC / 16 Ref Frames
Параметр CABAC формата : Да
Параметр RefFrames формата : 16 кадров
Идентификатор кодека : V_MPEG4/ISO/AVC
Продолжительность : 1 ч. 32 м.
Битрейт : 1471 Кбит/сек
Ширина : 716 пикселей
Высота : 480 пикселей
Соотношение сторон : 16:9
Соотношение сторон в оригинале : 16:9
Режим частоты кадров : Постоянный
Частота кадров : 23,976 (24000/1001) кадра/сек
Цветовое пространство : YUV
Субдискретизация насыщенности : 4:2:0
Битовая глубина : 8 бит
Тип развёртки : Прогрессивная
Бит/(Пиксели*Кадры) : 0.179
Размер потока : 950 Мбайт (64%)
Заголовок : http://kosmoaelita.com/viewtopic.php?t=27048
Библиотека кодирования : x264 core 125 r2200 999b753
Настройки программы : cabac=1 / ref=16 / deblock=1:-2:-1 / analyse=0x3:0x133 / me=umh / subme=10 / psy=1 / psy_rd=1.20:0.15 / mixed_ref=1 / me_range=24 / chroma_me=1 / trellis=2 / 8x8dct=1 / cqm=0 / deadzone=21,11 / fast_pskip=0 / chroma_qp_offset=-3 / threads=6 / lookahead_threads=1 / sliced_threads=0 / nr=0 / decimate=0 / interlaced=0 / bluray_compat=0 / constrained_intra=0 / bframes=8 / b_pyramid=2 / b_adapt=2 / b_bias=0 / direct=3 / weightb=1 / open_gop=0 / weightp=2 / keyint=250 / keyint_min=23 / scenecut=40 / intra_refresh=0 / rc_lookahead=60 / rc=2pass / mbtree=1 / bitrate=1471 / ratetol=1.0 / qcomp=0.60 / qpmin=0 / qpmax=69 / qpstep=4 / cplxblur=20.0 / qblur=0.5 / ip_ratio=1.40 / aq=1:0.80
Язык : English
Default : Да
Forced : Нет
Аудио #1
Идентификатор : 2
Формат : AC-3
Формат/Информация : Audio Coding 3
Коммерческое название : Dolby Digital
Идентификатор кодека : A_AC3
Продолжительность : 1 ч. 32 м.
Вид битрейта : Постоянный
Битрейт : 192 Кбит/сек
Каналы : 2 канала
ChannelLayout : L R
Частота : 48,0 КГц
Частота кадров : 31,250 кадров/сек (1536 SPF)
Метод сжатия : С потерями
Размер потока : 128 Мбайт (9%)
Заголовок : Русский ЛО (den904) по переводу от Chup
Язык : Russian
ServiceKind/String : Complete Main
Default : Да
Forced : Нет
Аудио #2
Идентификатор : 3
Формат : AC-3
Формат/Информация : Audio Coding 3
Коммерческое название : Dolby Digital
Идентификатор кодека : A_AC3
Продолжительность : 1 ч. 32 м.
Вид битрейта : Постоянный
Битрейт : 192 Кбит/сек
Каналы : 2 канала
ChannelLayout : L R
Частота : 48,0 КГц
Частота кадров : 31,250 кадров/сек (1536 SPF)
Метод сжатия : С потерями
Размер потока : 128 Мбайт (9%)
Язык : English
ServiceKind/String : Complete Main
Default : Нет
Forced : Нет
Аудио #3
Идентификатор : 4
Формат : AC-3
Формат/Информация : Audio Coding 3
Коммерческое название : Dolby Digital
Идентификатор кодека : A_AC3
Продолжительность : 1 ч. 32 м.
Вид битрейта : Постоянный
Битрейт : 192 Кбит/сек
Каналы : 2 канала
ChannelLayout : L R
Частота : 48,0 КГц
Частота кадров : 31,250 кадров/сек (1536 SPF)
Метод сжатия : С потерями
Размер потока : 128 Мбайт (9%)
Заголовок : Comment 1
Язык : English
ServiceKind/String : Complete Main
Default : Нет
Forced : Нет
Аудио #4
Идентификатор : 5
Формат : AC-3
Формат/Информация : Audio Coding 3
Коммерческое название : Dolby Digital
Идентификатор кодека : A_AC3
Продолжительность : 1 ч. 32 м.
Вид битрейта : Постоянный
Битрейт : 192 Кбит/сек
Каналы : 2 канала
ChannelLayout : L R
Частота : 48,0 КГц
Частота кадров : 31,250 кадров/сек (1536 SPF)
Метод сжатия : С потерями
Размер потока : 128 Мбайт (9%)
Заголовок : Comment 2
Язык : English
ServiceKind/String : Complete Main
Default : Нет
Forced : Нет
Текст #1
Идентификатор : 6
Формат : UTF-8
Идентификатор кодека : S_TEXT/UTF8
Идентификатор кодека/Информация : UTF-8 Plain Text
Заголовок : Русский (Chup) .srt
Язык : Russian
Default : Да
Forced : Нет
Текст #2
Идентификатор : 7
Формат : VobSub
Режим смешивания : zlib
Идентификатор кодека : S_VOBSUB
Идентификатор кодека/Информация : Picture based subtitle format used on DVDs
Заголовок : Русский (Chup) .VobSub
Язык : Russian
Default : Нет
Forced : Нет

Скриншоты



Скринлист

Файл дополнительно залит на ОБЛАКО
[Profile] [PM]

Joker777

Gender: Male

Longevity: 1 month 3 days

Posts: 6

Location: Рига

Post 23-Nov-2019 12:29 (after 7 hours)

[Quote]

А как мне скачать фильм?Вроде на него скидывался,а торрента не вижу. смайлик-
[Profile] [PM]

синемаскоп

Gender: Unknown

Post 23-Nov-2019 12:48 (after 18 minutes)

[Quote]

Да и субтитры не помешало бы оставить, раз народ складывался. Может кому-то и пригодятся.
И первой поставить русскую дорожку вместо английской:
Language : Russian
Default : No
Forced : No

И откуда взялось E-AC3 448, если в английском оригинале AC3 192?
Codec ID : A_AC3
Bit rate mode : Constant
Bit rate : 192 Kbps
 

синемаскоп

Gender: Unknown

Post 23-Nov-2019 13:03 (after 15 minutes)

[Quote]

Как бы фантастикой фильм трудно назвать....
Сиськи, море крови все полтора часа и расчлененка...
 

CROM@G

Gender: Male

Longevity: 4 years 2 months

Posts: 2554

Location: Прибалтика

Post 23-Nov-2019 13:08 (after 5 minutes)

[Quote]

23889А как мне скачать фильм?Вроде на него скидывался,а торрента не вижу. смайлик-
А сейчас?
[Profile] [PM]

Joker777

Gender: Male

Longevity: 1 month 3 days

Posts: 6

Location: Рига

Post 23-Nov-2019 16:08 (after 2 hours 59 minutes)

[Quote]

Всё OK. Спасибо.
[Profile] [PM]

Darth_47

Gender: Male

Longevity: 7 months 6 days

Posts: 410

Post 23-Nov-2019 21:44 (after 5 hours)

[Quote]

Замечания Анонимуса верны. Параметры раздачи довольно странные. Так что придется поставить статус "Сомнительно".
[Profile] [PM]

CROM@G

Gender: Male

Longevity: 4 years 2 months

Posts: 2554

Location: Прибалтика

Post 24-Nov-2019 10:56 (after 13 hours)

[Quote]

23902Замечания Анонимуса верны. Параметры раздачи довольно странные. Так что придется поставить статус "Сомнительно".
А так же мнение что фильм смахивает больше на жутик
[Profile] [PM]

Трамвай-фильм

Gender: Male

Longevity: 5 years 4 months

Posts: 1706

Location: Россия

Post 24-Nov-2019 12:15 (after 1 hour 19 minutes)

[Quote]

А так же мнение что фильм смахивает больше на жутик
Чистого фантастики оч. мало, почти не осталось. У меня лежит один из таких фильмов, но там тоже элемент драмы есть, всё руки не дойдут озвучить, хотя переведен полностью еще на этой неделе.
[Profile] [PM]

CROM@G

Gender: Male

Longevity: 4 years 2 months

Posts: 2554

Location: Прибалтика

Post 24-Nov-2019 14:36 (after 2 hours 20 minutes)

[Quote]

Трамвай-фильм, Сериалы ток остались
[Profile] [PM]

admin

Gender: Male

Longevity: 7 years 3 months

Posts: 4812

Post 25-Nov-2019 15:21 (after 1 day)

[Quote]

Торрент перезалит
Добавлены русские субтитры, переналожен русский голос
[Profile] [PM]

Трамвай-фильм

Gender: Male

Longevity: 5 years 4 months

Posts: 1706

Location: Россия

Post 25-Nov-2019 18:30 (after 3 hours)

[Quote]

23923Трамвай-фильм, Сериалы ток остались
Блин, мне пару лет назад какой-то фантастический фильм про Юпитер попадался, тогда пробил по этому сайту, хрютрекеру и ННМ, нигде не нашел, хотел качнуть в загашник, да вот не сделал. Сейчас даже названия не помню. Фильм ориентировочно года этак 1973-1977.
[Profile] [PM]

admin

Gender: Male

Longevity: 7 years 3 months

Posts: 4812

Post 25-Nov-2019 18:48 (after 18 minutes)

[Quote]

Трамвай. попробуй здесь поковыряться. может что и вспомнишь
https://www.scifi-movies.com/en/films-decade/1970/1...ecade-1970-1979/
[Profile] [PM]

Трамвай-фильм

Gender: Male

Longevity: 5 years 4 months

Posts: 1706

Location: Россия

Post 25-Nov-2019 19:32 (after 43 minutes)

[Quote]

23990Трамвай. попробуй здесь поковыряться. может что и вспомнишь
https://www.scifi-movies.com/en/films-decade/1970/1...ecade-1970-1979/
Похоже это был Альфа-инцидент, хотя в фильме Марс, а у меня в голове отложилось, что Юпитер. Тогда вопрос снимаем с повестки дня.
[Profile] [PM]
Quick Reply

Name:

            
Heads necessary to send messages to enable JavaScript
Display posts:    
Reply to topic

Current time is: 13-Dec 02:56

All times are UTC + 3



You cannot post new topics in this forum
You can reply to topics in this forum
You cannot edit your posts in this forum
You cannot delete your posts in this forum
You cannot vote in polls in this forum
You cannot attach files in this forum
You cannot download files in this forum