Мятеж Звездного огня / Starfire Mutiny (Ллойд А. Симэндл / Lloyd A. Simandl) [2002, США, фантастика, боевик, Sci-Fi, триллер, WEBRip] АО (Ghostface) + Original Eng + Italian Dub

Reply to topic
 
Author Message

Darth_47 ®

Gender: Male

Longevity: 7 months 6 days

Posts: 410

Post 20-Nov-2019 19:48

[Quote]

Мятеж Звездного огня / Starfire Mutiny
Страна: США
Жанр: фантастика, боевик, Sci-Fi, триллер
Год выпуска: 2002
Продолжительность: 01:34:03
Перевод: Авторский (одноголосый) Ghostface
Режиссер: Ллойд А. Симэндл / Lloyd A. Simandl
В ролях: Джо Лара, Морин ЛаВетт, Элиз Мюллер, Дуглас Артурс, Джулиус Краевский, Джон Комер, Майкл Ли, Петра Мартинцова, Eva Decastelo, Мартин Хьюб-Описание: В будущем озоновый слой исчезнет, а Земля станет пустошью. Большинство выживших окажутся на космической станции "Колония", ожидая возможности как-то вернуть озон. Вскоре солнечная вспышка запустит в действие кольцо спутников, что сделает мертвую планету пригодной для жизни. Бежавший преступник, генерал Суонн, и его группа наемников захватывают контроль над станцией. Теперь между спасением человечества и его уничтожением стоят лишь немногие оставшиеся на корабле члены экипажа.

-Качество видео: WEBRip
Формат видео: MKV
Видео: MPEG4 Video (H264) 696x496 25fps 1221 kb/s
Аудио 1: Dolby AC3 48000Hz stereo 192kbps Русский АО (Ghostface)
Аудио 2: Dolby AC3 48000Hz stereo 192kbps English
Аудио 3: Dolby AC3 48000Hz stereo 192kbps Italian-Релиз

Работа над релизом:
Перевод и озвучка - Ghostface
Спонсоры перевода и русской озвучки - Darth_47, snorrinort, PonchoUsatiy, killer snowman, bvedargh, arwin, AlexNever, -Holo-, Zmiku, pompilius
Сведение звука и сборка релиза - Darth_47
-Пример русского перевода

MediaInfo

General
Unique ID                      : 197423620838049446315433118904279215398 (0x94866803F0E66B7DA9D8562656DDAD26)
Complete name                  : Starfire Mutiny 2002.x264.WEBRip.Rus.Eng.Ita.mkv
Format                         : Matroska
Format version                 : Version 1
File size                      : 1.20 GiB
Duration                       : 1 h 34 min
Overall bit rate               : 1 834 kb/s
Movie name                     : Starfire Mutiny / 2002 / Eng Ita
Encoded date                   : UTC 2019-11-20 16:23:49
Writing application            : mkvmerge v2.4.2 ('Oh My God') built on Jan 18 2009 17:30:28
Writing library                : libebml v0.7.7 + libmatroska v0.8.1
Attachments                    : POSTER.jpg
Video
ID                             : 1
Format                         : AVC
Format/Info                    : Advanced Video Codec
Format profile                 : High@L4.1
Format settings                : CABAC / 8 Ref Frames
Format settings, CABAC         : Yes
Format settings, Reference fra : 8 frames
Codec ID                       : V_MPEG4/ISO/AVC
Duration                       : 1 h 34 min
Bit rate                       : 1 221 kb/s
Width                          : 696 pixels
Height                         : 496 pixels
Display aspect ratio           : 1.403
Frame rate mode                : Constant
Frame rate                     : 25.000 FPS
Color space                    : YUV
Chroma subsampling             : 4:2:0
Bit depth                      : 8 bits
Scan type                      : Progressive
Bits/(Pixel*Frame)             : 0.142
Stream size                    : 822 MiB (67%)
Title                          : kosmoaelita
Writing library                : x264 core 130 r2273 b3065e6
Encoding settings              : cabac=1 / ref=8 / deblock=1:-3:-3 / analyse=0x3:0x131 / me=umh / subme=11 / psy=1 / psy_rd=0.99:0.14 / mixed_ref=1 / me_range=24 / chroma_me=1 / trellis=2 / 8x8dct=1 / cqm=0 / deadzone=21,11 / fast_pskip=1 / chroma_qp_offset=-3 / threads=6 / lookahead_threads=1 / sliced_threads=0 / nr=0 / decimate=1 / interlaced=0 / bluray_compat=0 / constrained_intra=0 / bframes=8 / b_pyramid=2 / b_adapt=2 / b_bias=0 / direct=1 / weightb=1 / open_gop=0 / weightp=2 / keyint=210 / keyint_min=21 / scenecut=40 / intra_refresh=0 / rc_lookahead=80 / rc=crf / mbtree=1 / crf=16.0 / qcomp=0.65 / qpmin=0 / qpmax=69 / qpstep=4 / ip_ratio=1.25 / aq=1:0.90
Language                       : English
Default                        : Yes
Forced                         : No
Audio #1
ID                             : 2
Format                         : AC-3
Format/Info                    : Audio Coding 3
Commercial name                : Dolby Digital
Codec ID                       : A_AC3
Duration                       : 1 h 34 min
Bit rate mode                  : Constant
Bit rate                       : 192 kb/s
Channel(s)                     : 2 channels
Channel layout                 : L R
Sampling rate                  : 48.0 kHz
Frame rate                     : 31.250 FPS (1536 SPF)
Bit depth                      : 16 bits
Compression mode               : Lossy
Stream size                    : 129 MiB (10%)
Title                          : Русский АО (Ghostface для kosmoaelita.com)
Language                       : Russian
Service kind                   : Complete Main
Default                        : Yes
Forced                         : No
Audio #2
ID                             : 3
Format                         : AC-3
Format/Info                    : Audio Coding 3
Commercial name                : Dolby Digital
Codec ID                       : A_AC3
Duration                       : 1 h 34 min
Bit rate mode                  : Constant
Bit rate                       : 192 kb/s
Channel(s)                     : 2 channels
Channel layout                 : L R
Sampling rate                  : 48.0 kHz
Frame rate                     : 31.250 FPS (1536 SPF)
Bit depth                      : 16 bits
Compression mode               : Lossy
Stream size                    : 129 MiB (10%)
Language                       : English
Service kind                   : Complete Main
Default                        : No
Forced                         : No
Audio #3
ID                             : 4
Format                         : AC-3
Format/Info                    : Audio Coding 3
Commercial name                : Dolby Digital
Codec ID                       : A_AC3
Duration                       : 1 h 34 min
Bit rate mode                  : Constant
Bit rate                       : 192 kb/s
Channel(s)                     : 2 channels
Channel layout                 : L R
Sampling rate                  : 48.0 kHz
Frame rate                     : 31.250 FPS (1536 SPF)
Bit depth                      : 16 bits
Compression mode               : Lossy
Stream size                    : 129 MiB (10%)
Language                       : Italian
Service kind                   : Complete Main
Default                        : No
Forced                         : No

Скриншоты





[Profile] [PM]

Антон

Gender: Unknown

Post 20-Nov-2019 23:24 (after 3 hours)

[Quote]

У Симандла было несколько однотипных фильмов с теми же полуголыми чешками, одинаковыми кораблями и событиями на Титане, снятыми в одном и том же помещении.
Без перевода остался, похоже, только один:
Fatal Conflict (2000)
https://www.youtube.com/watch?v=PTv6hoh43cc
 

Darth_47 ®

Gender: Male

Longevity: 7 months 6 days

Posts: 410

Post 20-Nov-2019 23:31 (after 6 minutes)

[Quote]

Как раз таки на этот фильм скоро будет объявлен сбор. А можно список других его фильмов? Желательно со ссылками на скачивание.
[Profile] [PM]

Антон

Gender: Unknown

Post 20-Nov-2019 23:42 (after 10 minutes)

[Quote]

Лень мне.
Смотрите середина 90-х - начало 2000-х
https://www.imdb.com/name/nm0799302/?ref_=tt_ov_dr
 

admin

Gender: Male

Longevity: 7 years 3 months

Posts: 4812

Post 24-Nov-2019 15:10 (after 3 days)

[Quote]

Диск есть на Амазоне за 7 баксов.
Я готов оплатить. если кто-то в состоянии это организовать
[Profile] [PM]

Трамвай-фильм

Gender: Male

Longevity: 5 years 4 months

Posts: 1706

Location: Россия

Post 24-Nov-2019 16:39 (after 1 hour 28 minutes)

[Quote]

23927Диск есть на Амазоне за 7 баксов.
Я готов оплатить. если кто-то в состоянии это организовать
О, с возвращением.
[Profile] [PM]

Darth_47 ®

Gender: Male

Longevity: 7 months 6 days

Posts: 410

Post 24-Nov-2019 18:29 (after 1 hour 50 minutes)

[Quote]

23927
Диск есть на Амазоне за 7 баксов.
Я готов оплатить. если кто-то в состоянии это организовать
Я тоже видал на Амазоне. Хотелось бы заказать, конечно, но я оттуда ничего не заказывал никогда. С ибея да, с Амазона нет. Могу предложить отсюда заказать, там тоже абсолютно новый диск - https://www.ebay.com/itm/Starfire-Mutiny-New-DVDs/2...rucAAOSwYIxX~ZfU
Это я могу. Вся сумма с доставкой до меня будет в районе 2000 рублей. Если это лишнее и останется, пущу на дальнейшие переводы. Лучше перевести мне на карту, если есть такая возможность. Ну или на Яндекс, если с картой никак не получится.
[Profile] [PM]

Ghostface

Gender: Male

Longevity: 2 months 27 days

Posts: 31

Post 24-Nov-2019 18:30 (after 1 minute)

[Quote]

До меня меньше. Около 1100
[Profile] [PM]

CROM@G

Gender: Male

Longevity: 4 years 2 months

Posts: 2554

Location: Прибалтика

Post 24-Nov-2019 18:32 (after 1 minute)

[Quote]

Ghostface, Двд .Внизу листинг почитай И регион указан какой .
[Profile] [PM]

Ghostface

Gender: Male

Longevity: 2 months 27 days

Posts: 31

Post 24-Nov-2019 18:33 (after 56 seconds)

[Quote]

CROM@G, Успел заметить. Я коммент уже убрал, так как ссылка изменилась) До того, была ссыль с VHS)
[Profile] [PM]

Darth_47 ®

Gender: Male

Longevity: 7 months 6 days

Posts: 410

Post 24-Nov-2019 18:57 (after 23 minutes)

[Quote]

Да, раньше была ссылка на VHS, я ошибся. С DVD до меня тоже примерное 1100. 1124, если быть точным. Пока курс не скакнул)-Ждем вердикта Админа. Я хоть сейчас готов заказать, были бы деньги.
[Profile] [PM]

admin

Gender: Male

Longevity: 7 years 3 months

Posts: 4812

Post 24-Nov-2019 22:42 (after 3 hours)

[Quote]

Ок.
1000р с меня
[Profile] [PM]

Darth_47 ®

Gender: Male

Longevity: 7 months 6 days

Posts: 410

Post 24-Nov-2019 23:07 (after 24 minutes)

[Quote]

admin, кинул в личку реквизиты. Лучше на карту скинь, если получится.
[Profile] [PM]

admin

Gender: Male

Longevity: 7 years 3 months

Posts: 4812

Post 24-Nov-2019 23:14 (after 7 minutes)

[Quote]

Поздно.
Не видел я этого сообщения.
Вы уж как то сами теперь
[Profile] [PM]

Darth_47 ®

Gender: Male

Longevity: 7 months 6 days

Posts: 410

Post 24-Nov-2019 23:28 (after 14 minutes)

[Quote]

Заказано.
[Profile] [PM]
Quick Reply

Name:

            
Heads necessary to send messages to enable JavaScript
Display posts:    
Reply to topic

Current time is: 13-Dec 03:08

All times are UTC + 3



You cannot post new topics in this forum
You can reply to topics in this forum
You cannot edit your posts in this forum
You cannot delete your posts in this forum
You cannot vote in polls in this forum
You cannot attach files in this forum
You cannot download files in this forum