Мятеж Звездного огня / Starfire Mutiny (Ллойд А. Симэндл / Lloyd A. Simandl) [2002, США, фантастика, боевик, Sci-Fi, триллер, DVDRip] АО (Ghostface) + Original Eng

Reply to topic
 
Author Message

Darth_47 ®

Gender: Male

Longevity: 1 year 4 months

Posts: 696

Post 20-Nov-2019 19:48

[Quote]

Мятеж Звездного огня / Starfire Mutiny
Страна: США
Жанр: фантастика, боевик, Sci-Fi, триллер
Год выпуска: 2002
Продолжительность: 01:34:26
Перевод: Авторский (одноголосый) Ghostface
Режиссер: Ллойд А. Симэндл / Lloyd A. Simandl
В ролях: Джо Лара, Морин ЛаВетт, Элиз Мюллер, Дуглас Артурс, Джулиус Краевский, Джон Комер, Майкл Ли, Петра Мартинцова, Eva Decastelo, Мартин Хьюб-Описание: В будущем озоновый слой исчезнет, а Земля станет пустошью. Большинство выживших окажутся на космической станции "Колония", ожидая возможности как-то вернуть озон. Вскоре солнечная вспышка запустит в действие кольцо спутников, что сделает мертвую планету пригодной для жизни. Бежавший преступник, генерал Суонн, и его группа наемников захватывают контроль над станцией. Теперь между спасением человечества и его уничтожением стоят лишь немногие оставшиеся на корабле члены экипажа.

-Качество видео: DVDRip
Формат видео: MKV
Видео: MPEG4 Video (H264) 720x540 23,976fps 1809 kb/s, crf=16.77
Аудио 1: Dolby AC3 48000Hz stereo 192kbps Русский АО (Ghostface)
Аудио 2: Dolby AC3 48000Hz stereo 192kbps English-Релиз

Работа над релизом:
Перевод и озвучка - Ghostface
Спонсоры перевода и русской озвучки - Darth_47, snorrinort, PonchoUsatiy, killer snowman, bvedargh, arwin, AlexNever, -Holo-, Zmiku, pompilius
Сведение звука и сборка релиза - Darth_47
Покупка ДВД - kosmoaelita, Darth_47
-Пример русского перевода

MediaInfo

Общее
Уникальный идентификатор                 : 182501477580366932611741499635842060639 (0x894C818CEE7890F9A3F01C498B9E915F)
Полное имя                               : H:\НА ПЕРЕЗАПИСЬ В АРХИВ\Starfire Mutiny\Новая папка\Starfire Mutiny 2002.x264.DVDRip.Rus.kosmoaelita.mkv
Формат                                   : Matroska
Версия формата                           : Version 4
Размер файла                             : 1,45 Гбайт
Продолжительность                        : 1 ч. 34 м.
Общий поток                              : 2195 Кбит/сек
Название фильма                          : Мятеж Звездного огня / Starfire Mutiny / 2002 / rip from  NTSC DVD5 by kosmoaelita (2019-12-20), crf=16.77
Дата кодирования                         : UTC 2019-12-21 08:37:11
Программа кодирования                    : mkvmerge v6.6.0 ('The Edge Of The In Between') built on Dec  1 2013 17:55:00
Библиотека кодирования                   : libebml v1.3.0 + libmatroska v1.4.1
Attachments                              : VTS_01_1_002.mkv.encoding.log / POSTER.jpg
Видео
Идентификатор                            : 1
Формат                                   : AVC
Формат/Информация                        : Advanced Video Codec
Профиль формата                          : High@L4.1
Настройки формата                        : CABAC / 8 Ref Frames
Параметр CABAC формата                   : Да
Параметр RefFrames формата               : 8 кадров
Идентификатор кодека                     : V_MPEG4/ISO/AVC
Продолжительность                        : 1 ч. 34 м.
Битрейт                                  : 1809 Кбит/сек
Ширина                                   : 720 пикселей
Высота                                   : 540 пикселей
Соотношение сторон                       : 4:3
Режим частоты кадров                     : Постоянный
Частота кадров                           : 23,976 (24000/1001) кадра/сек
Цветовое пространство                    : YUV
Субдискретизация насыщенности            : 4:2:0
Битовая глубина                          : 8 бит
Тип развёртки                            : Прогрессивная
Бит/(Пиксели*Кадры)                      : 0.194
Размер потока                            : 1,17 Гбайт (81%)
Заголовок                                : http://kosmoaelita.com/viewtopic.php?t=2906
Библиотека кодирования                   : x264 core 130 r2273 b3065e6
Настройки программы                      : cabac=1 / ref=8 / deblock=1:-3:-3 / analyse=0x3:0x131 / me=umh / subme=11 / psy=1 / psy_rd=0.99:0.14 / mixed_ref=1 / me_range=24 / chroma_me=1 / trellis=2 / 8x8dct=1 / cqm=0 / deadzone=21,11 / fast_pskip=1 / chroma_qp_offset=-3 / threads=6 / lookahead_threads=1 / sliced_threads=0 / nr=0 / decimate=1 / interlaced=0 / bluray_compat=0 / constrained_intra=0 / bframes=8 / b_pyramid=2 / b_adapt=2 / b_bias=0 / direct=3 / weightb=1 / open_gop=0 / weightp=2 / keyint=210 / keyint_min=21 / scenecut=40 / intra_refresh=0 / rc_lookahead=80 / rc=2pass / mbtree=1 / bitrate=1809 / ratetol=1.0 / qcomp=0.65 / qpmin=0 / qpmax=69 / qpstep=4 / cplxblur=20.0 / qblur=0.5 / ip_ratio=1.25 / aq=1:0.90
Default                                  : Да
Forced                                   : Нет
Цветовой диапазон                        : Limited
Основные цвета                           : BT.601 NTSC
Характеристики трансфера                 : BT.601
Коэффициенты матрицы                     : BT.601
Аудио #1
Идентификатор                            : 2
Формат                                   : AC-3
Формат/Информация                        : Audio Coding 3
Коммерческое название                    : Dolby Digital
Идентификатор кодека                     : A_AC3
Продолжительность                        : 1 ч. 34 м.
Вид битрейта                             : Постоянный
Битрейт                                  : 192 Кбит/сек
Каналы                                   : 2 канала
ChannelLayout                            : L R
Частота                                  : 48,0 КГц
Частота кадров                           : 31,250 кадров/сек (1536 SPF)
Метод сжатия                             : С потерями
Размер потока                            : 130 Мбайт (9%)
Заголовок                                : Русский АО (Сергей Гост aka Ghostface) для kosmoaelita.com
Язык                                     : Russian
ServiceKind/String                       : Complete Main
Default                                  : Да
Forced                                   : Нет
Аудио #2
Идентификатор                            : 3
Формат                                   : AC-3
Формат/Информация                        : Audio Coding 3
Коммерческое название                    : Dolby Digital
Идентификатор кодека                     : A_AC3
Продолжительность                        : 1 ч. 34 м.
Вид битрейта                             : Постоянный
Битрейт                                  : 192 Кбит/сек
Каналы                                   : 2 канала
ChannelLayout                            : L R
Частота                                  : 48,0 КГц
Частота кадров                           : 31,250 кадров/сек (1536 SPF)
Метод сжатия                             : С потерями
Размер потока                            : 130 Мбайт (9%)
Язык                                     : English
ServiceKind/String                       : Complete Main
Default                                  : Нет
Forced                                   : Нет
Меню
00:03:58.138                             : en:00:03:58.138
00:08:33.580                             : en:00:08:33.580
00:16:43.302                             : en:00:16:43.302
00:24:04.010                             : en:00:24:04.010
00:36:44.836                             : en:00:36:44.836
00:45:43.574                             : en:00:45:43.574
00:50:26.824                             : en:00:50:26.824
00:59:33.803                             : en:00:59:33.803
01:07:54.804                             : en:01:07:54.804
01:16:10.599                             : en:01:16:10.599
01:25:12.374                             : en:01:25:12.374
01:31:19.341                             : en:01:31:19.341
01:34:26.694                             : en:01:34:26.694

Скриншоты





















Скринлист



Last edited by Darth_47 on 2019-12-23 01:28; edited 1 time in total
[Profile] [PM]

Антон

Gender: Unknown

Post 20-Nov-2019 23:24 (after 3 hours)

[Quote]

У Симандла было несколько однотипных фильмов с теми же полуголыми чешками, одинаковыми кораблями и событиями на Титане, снятыми в одном и том же помещении.
Без перевода остался, похоже, только один:
Fatal Conflict (2000)
https://www.youtube.com/watch?v=PTv6hoh43cc
 

Darth_47 ®

Gender: Male

Longevity: 1 year 4 months

Posts: 696

Post 20-Nov-2019 23:31 (after 6 minutes)

[Quote]

Как раз таки на этот фильм скоро будет объявлен сбор. А можно список других его фильмов? Желательно со ссылками на скачивание.
[Profile] [PM]

Антон

Gender: Unknown

Post 20-Nov-2019 23:42 (after 10 minutes)

[Quote]

Лень мне.
Смотрите середина 90-х - начало 2000-х
https://www.imdb.com/name/nm0799302/?ref_=tt_ov_dr
 

admin

Gender: Male

Longevity: 8 years

Posts: 4794

Post 24-Nov-2019 15:10 (after 3 days)

[Quote]

Диск есть на Амазоне за 7 баксов.
Я готов оплатить. если кто-то в состоянии это организовать
[Profile] [PM]

Трамвай-фильм

Gender: Male

Longevity: 6 years 1 month

Posts: 1863

Location: Россия

Post 24-Nov-2019 16:39 (after 1 hour 28 minutes)

[Quote]

23927Диск есть на Амазоне за 7 баксов.
Я готов оплатить. если кто-то в состоянии это организовать
О, с возвращением.
[Profile] [PM]

Darth_47 ®

Gender: Male

Longevity: 1 year 4 months

Posts: 696

Post 24-Nov-2019 18:29 (after 1 hour 50 minutes)

[Quote]

23927
Диск есть на Амазоне за 7 баксов.
Я готов оплатить. если кто-то в состоянии это организовать
Я тоже видал на Амазоне. Хотелось бы заказать, конечно, но я оттуда ничего не заказывал никогда. С ибея да, с Амазона нет. Могу предложить отсюда заказать, там тоже абсолютно новый диск - https://www.ebay.com/itm/Starfire-Mutiny-New-DVDs/2...rucAAOSwYIxX~ZfU
Это я могу. Вся сумма с доставкой до меня будет в районе 2000 рублей. Если это лишнее и останется, пущу на дальнейшие переводы. Лучше перевести мне на карту, если есть такая возможность. Ну или на Яндекс, если с картой никак не получится.
[Profile] [PM]

Guest

Gender: Unknown

Post 24-Nov-2019 18:30 (after 1 minute)

[Quote]

До меня меньше. Около 1100
 

CROM@G

Gender: Male

Longevity: 5 years

Posts: 3373

Location: Прибалтика

Post 24-Nov-2019 18:32 (after 1 minute)

[Quote]

Ghostface, Двд .Внизу листинг почитай И регион указан какой .
[Profile] [PM]

Guest

Gender: Unknown

Post 24-Nov-2019 18:33 (after 56 seconds)

[Quote]

CROM@G, Успел заметить. Я коммент уже убрал, так как ссылка изменилась) До того, была ссыль с VHS)
 

Darth_47 ®

Gender: Male

Longevity: 1 year 4 months

Posts: 696

Post 24-Nov-2019 18:57 (after 23 minutes)

[Quote]

Да, раньше была ссылка на VHS, я ошибся. С DVD до меня тоже примерное 1100. 1124, если быть точным. Пока курс не скакнул)-Ждем вердикта Админа. Я хоть сейчас готов заказать, были бы деньги.
[Profile] [PM]

admin

Gender: Male

Longevity: 8 years

Posts: 4794

Post 24-Nov-2019 22:42 (after 3 hours)

[Quote]

Ок.
1000р с меня
[Profile] [PM]

Darth_47 ®

Gender: Male

Longevity: 1 year 4 months

Posts: 696

Post 24-Nov-2019 23:07 (after 24 minutes)

[Quote]

admin, кинул в личку реквизиты. Лучше на карту скинь, если получится.
[Profile] [PM]

admin

Gender: Male

Longevity: 8 years

Posts: 4794

Post 24-Nov-2019 23:14 (after 7 minutes)

[Quote]

Поздно.
Не видел я этого сообщения.
Вы уж как то сами теперь
[Profile] [PM]

Darth_47 ®

Gender: Male

Longevity: 1 year 4 months

Posts: 696

Post 24-Nov-2019 23:28 (after 14 minutes)

[Quote]

Заказано.
[Profile] [PM]

kosmoaelita

Gender: Male

Longevity: 8 years

Posts: 1641

Post 21-Dec-2019 12:49 (after 26 days)

[Quote]

Замена на DVDRip
[Profile] [PM]
Display posts:    
Reply to topic

Current time is: 23-Sep 02:51

All times are UTC + 3



You cannot post new topics in this forum
You cannot reply to topics in this forum
You cannot edit your posts in this forum
You cannot delete your posts in this forum
You cannot vote in polls in this forum
You cannot attach files in this forum
You cannot download files in this forum