Тунка - воин / Tunka el guerrero (Хоакин Гомес / Joaquín Gómez) [1984, Испания, фантастика, фэнтези, TVRip-720p] АО (Сергей Гост (Ghostface)

Reply to topic
 
Author Message

AlexNT60 ®

Gender: Male

Longevity: 6 years 10 months

Posts: 121

Location: СПб

Post 15-Nov-2019 21:54

[Quote]

Тунка - воин / Tunka el guerrero
Страна: Испания
Жанр: фантастика, фэнтези
Год выпуска: 1984
Продолжительность: 01:15:18
Перевод 1: Одноголосый - Сергей Гост (Ghostface)
Cубтитры: нет
Режиссер: Хоакин Гомес / Joaquín Gómez
В ролях: Хоакин Гомес, Ремедиос Эрнандес, Том Эрнандес, Мариано Видаль Молина, Бартабас, Чарли Браво
Описание: В условном постапокалиптическом мире существуют два враждующих племени: мужское и женское. Первые — злодеи, вторые — жертвы. Отважный воин Тунка из третьего племени, в котором сохранилась память о прежнем мире, вызывается помочь слабому полу в его справедливой войне против злыдней-мачо.
Качество видео: TVRip-720p
Формат видео: MKV
Видео: x264, 1280x720, 16:9, 25 fps, 1600 kb/s
Аудио 1: Русский АО (Ghostface) (AC3, 2 ch, 192 kb/s)
Аудио 2: Испанский, AC-3, 192 kb/s, 2 ch, 48,0 kHz


Пример русского перевода

MediaInfo

General
Unique ID : 112448799837840653713173708472726671610 (0x5498D9E07F5DD4BD4A61687E26FD50FA)
Complete name : F:\Torrent\Tunka.el.Guerrero.1984.HDTVRip.AVC.x264.mkv
Format : Matroska
Format version : Version 4
File size : 1.10 GiB
Duration : 1 h 15 min
Overall bit rate : 2 083 kb/s
Movie name : Tunka el guerrero (1984)
Encoded date : UTC 2019-11-14 18:59:46
Writing application : mkvmerge v40.0.0 ('Old Town Road + Pony') 64-bit
Writing library : libebml v1.3.9 + libmatroska v1.5.2
Cover : Yes
Attachments : Cover.png
Video
ID : 1
Format : AVC
Format/Info : Advanced Video Codec
Format profile : High@L4
Format settings : CABAC / 8 Ref Frames
Format settings, CABAC : Yes
Format settings, ReFrames : 8 frames
Codec ID : V_MPEG4/ISO/AVC
Duration : 1 h 15 min
Bit rate : 1 700 kb/s
Width : 1 280 pixels
Height : 720 pixels
Display aspect ratio : 16:9
Frame rate mode : Constant
Frame rate : 25.000 FPS
Color space : YUV
Chroma subsampling : 4:2:0
Bit depth : 8 bits
Scan type : Progressive
Bits/(Pixel*Frame) : 0.074
Stream size : 911 MiB (81%)
Writing library : x264 core 146 r2538M 121396c
Encoding settings : cabac=1 / ref=8 / deblock=1:0:0 / analyse=0x3:0x133 / me=umh / subme=9 / psy=1 / psy_rd=1.00:0.00 / mixed_ref=1 / me_range=16 / chroma_me=1 / trellis=2 / 8x8dct=1 / cqm=0 / deadzone=21,11 / fast_pskip=1 / chroma_qp_offset=-2 / threads=9 / lookahead_threads=1 / sliced_threads=0 / nr=0 / decimate=1 / interlaced=0 / bluray_compat=0 / constrained_intra=0 / bframes=3 / b_pyramid=2 / b_adapt=2 / b_bias=0 / direct=3 / weightb=1 / open_gop=0 / weightp=2 / keyint=250 / keyint_min=25 / scenecut=40 / intra_refresh=0 / rc_lookahead=60 / rc=abr / mbtree=1 / bitrate=1700 / ratetol=1.0 / qcomp=0.60 / qpmin=0 / qpmax=69 / qpstep=4 / ip_ratio=1.40 / aq=1:1.00
Default : Yes
Forced : No
Audio #1
ID : 2
Format : AC-3
Format/Info : Audio Coding 3
Commercial name : Dolby Digital
Codec ID : A_AC3
Duration : 1 h 15 min
Bit rate mode : Constant
Bit rate : 192 kb/s
Channel(s) : 2 channels
Channel layout : L R
Sampling rate : 48.0 kHz
Frame rate : 31.250 FPS (1536 SPF)
Bit depth : 16 bits
Compression mode : Lossy
Delay relative to video : -83 ms
Stream size : 103 MiB (9%)
Title : AVO (С.Гост)
Language : Russian
Service kind : Complete Main
Default : Yes
Forced : No
Audio #2
ID : 3
Format : AC-3
Format/Info : Audio Coding 3
Commercial name : Dolby Digital
Codec ID : A_AC3
Duration : 1 h 15 min
Bit rate mode : Constant
Bit rate : 192 kb/s
Channel(s) : 2 channels
Channel layout : L R
Sampling rate : 48.0 kHz
Frame rate : 31.250 FPS (1536 SPF)
Bit depth : 16 bits
Compression mode : Lossy
Delay relative to video : -83 ms
Stream size : 103 MiB (9%)
Language : Spanish
Service kind : Complete Main
Default : No
Forced : No

Скриншоты










Скринлист



Last edited by AlexNT60 on 2019-11-16 12:33; edited 1 time in total
[Profile] [PM]

Трамвай-фильм

Gender: Male

Longevity: 5 years 4 months

Posts: 1706

Location: Россия

Post 15-Nov-2019 23:30 (after 1 hour 35 minutes)

[Quote]

Видно в далеком варварском будущем сохранилось полно помад, шампуней и стиральных порошков.
[Profile] [PM]

Darth_47

Gender: Male

Longevity: 7 months 6 days

Posts: 410

Post 15-Nov-2019 23:46 (after 16 minutes)

[Quote]

23783Видно в далеком варварском будущем сохранилось полно помад, шампуней и стиральных порошков.
под столом
[Profile] [PM]
Quick Reply

Name:

            
Heads necessary to send messages to enable JavaScript
Display posts:    
Reply to topic

Current time is: 13-Dec 03:35

All times are UTC + 3



You cannot post new topics in this forum
You can reply to topics in this forum
You cannot edit your posts in this forum
You cannot delete your posts in this forum
You cannot vote in polls in this forum
You cannot attach files in this forum
You cannot download files in this forum