Киборг 2087 / Cyborg 2087 (Франклин Адреон / Franklin Adreon) [1966, США, фантастика, WEB-DL] (АО : Трамвай-фильм)

Reply to topic
DL-List and Torrent activity
Size:  1.57 GB   |    Registered:  1 month 3 days   |    Completed:  3 times

Seeder not seen: 4 minutes

 
   
 
 
 
Author Message

Трамвай-фильм ®

Gender: Male

Longevity: 5 years 4 months

Posts: 1706

Location: Россия

Post 09-Nov-2019 15:28

[Quote]

Киборг 2087 / Cyborg 2087
Страна: США
Жанр: фантастика
Год выпуска: 1966
Продолжительность: 01:25:38
Перевод : Авторский (одноголосый) Трамвай-фильм
Cубтитры: нет
Режиссер: Франклин Адреон / Franklin Adreon
В ролях: Майкл Ренни, Карен Стил, Венделл Кори, Уоррен Стивенс
Описание: В будущем свободомыслие - непозволительная роскошь! Вся планета подчинена группе диктаторов, которые с помощью киборгов и установок радио-телепатии контролируют волю людей. Однако движению за свободу удалось захватить одного киборга и отправить в 1966 год, в то время, когда была создана первая телепатическая установка. Теперь гостю из будущего предстоит изменить это.
Доп. информация: Прообраз терминатора.Это переделка моей ранней работы, во-первых я там подправил звук, во-вторых подправил мелкие ляпы в переводе, в-третьих замена SAT-рипа на широкоформатный WEB-DL.
Качество видео: WEB-DL
Формат видео: MKV
Видео: MPEG4 Video (H264), 1280x692, 24fps, 2 164 kb/s
Аудио 1: AC3, 48000Hz, stereo, 192kbps [A: АО Трамвай фильм [rus]]
Аудио 2: AC3, 48000Hz, stereo, 256kbps [A: English [eng]]

MediaInfo

Format : Matroska
Format version : Version 4 / Version 2
File size : 1.57 GiB
Duration : 1 h 25 min
Overall bit rate : 2 627 kb/s
Encoded date : UTC 2019-11-09 12:03:45
Writing application : mkvmerge v7.1.0 ('Good Love') 32bit built on Jul 27 2014 12:59:18
Writing library : libebml v1.3.0 + libmatroska v1.4.1
Video
ID : 1
Format : AVC
Format/Info : Advanced Video Codec
Format profile : High@L3.1
Format settings : CABAC / 4 Ref Frames
Format settings, CABAC : Yes
Format settings, ReFrames : 4 frames
Format settings, GOP : M=1, N=72
Codec ID : V_MPEG4/ISO/AVC
Duration : 1 h 25 min
Bit rate : 2 164 kb/s
Width : 1 280 pixels
Height : 692 pixels
Display aspect ratio : 1.85:1
Original display aspect ratio : 1.85:1
Frame rate mode : Constant
Frame rate : 24.000 FPS
Color space : YUV
Chroma subsampling : 4:2:0
Bit depth : 8 bits
Scan type : Progressive
Bits/(Pixel*Frame) : 0.102
Stream size : 1.30 GiB (83%)
Writing library : x264 core 157
Encoding settings : cabac=1 / ref=4 / deblock=1:2:2 / analyse=0x3:0x113 / me=hex / subme=2 / psy=1 / psy_rd=1.00:0.00 / mixed_ref=1 / me_range=16 / chroma_me=1 / trellis=0 / 8x8dct=1 / cqm=0 / deadzone=21,11 / fast_pskip=1 / chroma_qp_offset=0 / threads=22 / lookahead_threads=5 / sliced_threads=0 / nr=0 / decimate=1 / interlaced=0 / bluray_compat=0 / constrained_intra=0 / bframes=0 / weightp=2 / keyint=72 / keyint_min=7 / scenecut=0 / intra_refresh=0 / rc_lookahead=40 / rc=abr / mbtree=1 / bitrate=2164 / ratetol=1.0 / qcomp=0.60 / qpmin=10 / qpmax=51 / qpstep=4 / ip_ratio=0.91 / aq=1:1.00
Default : Yes
Forced : No
Audio #1
ID : 2
Format : AC-3
Format/Info : Audio Coding 3
Codec ID : A_AC3
Duration : 1 h 25 min
Bit rate mode : Constant
Bit rate : 192 kb/s
Channel(s) : 2 channels
Channel positions : Front: L R
Sampling rate : 48.0 kHz
Frame rate : 31.250 FPS (1536 SPF)
Bit depth : 16 bits
Compression mode : Lossy
Stream size : 118 MiB (7%)
Title : АО Трамвай фильм
Language : Russian
Service kind : Complete Main
Default : Yes
Forced : No
Audio #2
ID : 3
Format : AC-3
Format/Info : Audio Coding 3
Codec ID : A_AC3
Duration : 1 h 25 min
Bit rate mode : Constant
Bit rate : 256 kb/s
Channel(s) : 2 channels
Channel positions : Front: L R
Sampling rate : 48.0 kHz
Frame rate : 31.250 FPS (1536 SPF)
Bit depth : 16 bits
Compression mode : Lossy
Stream size : 157 MiB (10%)
Language : English
Service kind : Complete Main
Default : No
Forced : No

Скриншоты






Cyborg_2087.WEBDL (1966).torrent
Torrent: Registered [ 2019-11-09 15:28 ]

Download .torrent

Download

16 KB

Status: checked
Completed: 3 times
Size: 1.57 GB
 
[Profile] [PM]
Quick Reply

Name:

            
Heads necessary to send messages to enable JavaScript
Display posts:    
Reply to topic

Current time is: 13-Dec 03:48

All times are UTC + 3



You can post new topics in this forum
You can reply to topics in this forum
You cannot edit your posts in this forum
You cannot delete your posts in this forum
You cannot vote in polls in this forum
You cannot attach files in this forum
You can download files in this forum