Инцидент с НЛО / The UFO Incident (ТВ) (Ричард А. Колла) [1975 г., Фантастика, драма, мелодрама, история, DVDRip-AVC] ЛО (В.Назаров)

Reply to topic
 
Author Message

admin ®

Gender: Male

Longevity: 7 years 3 months

Posts: 4813

Post 22-Oct-2012 15:30

[Quote]

Инцидент с НЛО / The UFO Incident (ТV)
Год выпуска: 1975
Страна: США, Universal TV
Жанр: Фантастика, драма, мелодрама, история
Продолжительность: 01:32:26
Перевод: Любительский (одноголосый) В.Назаров
Режиссер: Ричард А. Колла
В ролях: Джеймс Эрл Джонс, Эстелл Парсонс, Барнард Хьюз, Дик О’Нил, Бисон Кэрролл, Терренс О’Коннор, Джинн Джо, Лу Вагнер, Вик Перрин, Джои Стефано
Описание: Фильм основанный на реальной истории жизни супружеской пары Бетти и Барни Хилл. Этот наиболее известный и, вероятно, подробнейшим образом запротоколированный случай «похищения пришельцами» произошел 19 сентября 1961 года в Уитфилде, Нью-Гемпшир, США.
Качество: DVDRip-AVC
Формат: MKV
Видео: x264, 1986 Кбит/с, 704x536, 23.976 к/с, crf=18
Аудио 1: Русский (AC3, 2 ch, 192 Кбит/с)
Аудио 2: Английский (AC3, 2 ch, 256 Кбит/с)


Релиз

Рип с ДВД5, монтаж - sasha20072007, качество рипа - crf=18
Озвучка - одноголосый (Вадим Назаров)
Для Украины: рип и оригинальный ДВД дополнительно залиты в файлохранилище
Для удаления и добавления дорожек в mkv используйте бесплатную mkvmerge GUI 5.80

Дополнительно

Also Known As (AKA)
Begegnung aus dem Nichts West Germany (video title)
Interrupted Journey USA (alternative title)

Рецензия

MediaInfo

Общее
Уникальный идентификатор : 226282633088404460484180021801715612809 (0xAA3C732C61F26900BCA5B5628BA5BC89)
Полное имя : E:\Intsident.s.NLO.1975.x264.DVDRip.sasha20072007.mkv
Формат : Matroska
Версия формата : Version 2
Размер файла : 1,55 Гбайт
Продолжительность : 1 ч. 32 м.
Общий поток : 2418 Кбит/сек
Название фильма : Инцидент с НЛО / The UFO Incident / 1975 / rip by sasha20072007
Дата кодирования : UTC 2012-05-05 19:46:46
Программа кодирования : mkvmerge v5.5.0 ('Healer') built on Apr 24 2012 23:47:03
Библиотека кодирования : libebml v1.2.3 + libmatroska v1.3.0
Attachment : Yes / Yes
Видео
Идентификатор : 1
Формат : AVC
Формат/Информация : Advanced Video Codec
Профиль формата : High@L4.1
Параметр CABAC формата : Да
Параметр ReFrames формата : 10 кадров
Идентификатор кодека : V_MPEG4/ISO/AVC
Продолжительность : 1 ч. 32 м.
Битрейт : 1986 Кбит/сек
Ширина : 704 пикселя
Высота : 536 пикселей
Соотношение сторон : 4:3
Режим частоты кадров : Постоянный
Частота кадров : 23,976 кадра/сек
Цветовое пространство : YUV
Субдискретизация насыщенности : 4:2:0
Битовая глубина : 8 бит
Тип развёртки : Прогрессивная
Бит/(Пиксели*Кадры) : 0.220
Размер потока : 1,28 Гбайт (82%)
Библиотека кодирования : x264 core 120 r2164 da19765
Настройки программы : cabac=1 / ref=10 / deblock=1:-2:-2 / analyse=0x3:0x133 / me=umh / subme=11 / psy=1 / psy_rd=1.00:0.20 / mixed_ref=1 / me_range=24 / chroma_me=1 / trellis=2 / 8x8dct=1 / cqm=0 / deadzone=6,6 / fast_pskip=1 / chroma_qp_offset=-3 / threads=12 / sliced_threads=0 / nr=0 / decimate=0 / interlaced=0 / bluray_compat=0 / constrained_intra=0 / bframes=10 / b_pyramid=2 / b_adapt=2 / b_bias=0 / direct=3 / weightb=1 / open_gop=0 / weightp=2 / keyint=220 / keyint_min=22 / scenecut=40 / intra_refresh=0 / rc_lookahead=60 / rc=crf / mbtree=1 / crf=18.0 / qcomp=0.80 / qpmin=0 / qpmax=69 / qpstep=4 / vbv_maxrate=17500 / vbv_bufsize=14000 / crf_max=0.0 / nal_hrd=none / ip_ratio=1.10 / aq=1:0.60
Default : Да
Forced : Нет
Аудио #1
Идентификатор : 2
Формат : AC-3
Формат/Информация : Audio Coding 3
Расширение режима : CM (complete main)
Параметр Endianness формата : Big
Идентификатор кодека : A_AC3
Продолжительность : 1 ч. 32 м.
Вид битрейта : Постоянный
Битрейт : 192 Кбит/сек
Каналы : 2 канала
Расположение каналов : Front: L R
Частота : 48,0 КГц
Битовая глубина : 16 бит
Метод сжатия : С потерями
Размер потока : 126 Мбайт (8%)
Заголовок : Русский (Вадим Назаров)
Язык : Russian
Default : Да
Forced : Да
Аудио #2
Идентификатор : 3
Формат : AC-3
Формат/Информация : Audio Coding 3
Расширение режима : CM (complete main)
Параметр Endianness формата : Big
Идентификатор кодека : A_AC3
Продолжительность : 1 ч. 32 м.
Вид битрейта : Постоянный
Битрейт : 192 Кбит/сек
Каналы : 2 канала
Расположение каналов : Front: L R
Частота : 48,0 КГц
Битовая глубина : 16 бит
Метод сжатия : С потерями
Размер потока : 126 Мбайт (8%)
Язык : English
Default : Нет
Forced : Нет
Меню
00:00:00.000 : :Chapter 01
00:05:00.167 : :Chapter 02
00:10:00.068 : :Chapter 03
00:15:00.101 : :Chapter 04
00:20:00.335 : :Chapter 05
00:25:00.236 : :Chapter 06
00:30:00.369 : :Chapter 07
00:35:00.436 : :Chapter 08
00:40:00.436 : :Chapter 09
00:45:00.436 : :Chapter 10
00:50:00.137 : :Chapter 11
00:55:00.371 : :Chapter 12
01:00:00.105 : :Chapter 13
01:05:00.472 : :Chapter 14
01:10:00.206 : :Chapter 15
01:15:00.406 : :Chapter 16
01:20:00.207 : :Chapter 17
01:25:00.274 : :Chapter 18
01:30:00.274 : :Chapter 19

Скриншоты



cd Рип дополнительно залит на mail.ru cd2
[Profile] [PM]
Quick Reply

Name:

            
Heads necessary to send messages to enable JavaScript
Display posts:    
Reply to topic

Current time is: 09-Dec 03:45

All times are UTC + 3



You cannot post new topics in this forum
You can reply to topics in this forum
You cannot edit your posts in this forum
You cannot delete your posts in this forum
You cannot vote in polls in this forum
You cannot attach files in this forum
You cannot download files in this forum