Перак - тень над Прагой / Pérák - Stín nad Prahou / Perak - Shadow over Prague (Марек Бергер) [2016, Чехия, фантастика, боевик, DVDRip] (АО : Трамвай-фильм)

Reply to topic
DL-List and Torrent activity
Size:  205 MB   |    Registered:  17 days   |    Completed:  5 times

Seeders:

Username ULR UL DL UL speed DL speed
pompilius 1.6 342628982327 MB 0- 0- 0-
shows data only for the current session
 
   
 
 
 
Author Message

Трамвай-фильм ®

Gender: Male

Longevity: 5 years 4 months

Posts: 1706

Location: Россия

Post 25-Nov-2019 21:04

[Quote]

Перак - тень над Прагой / Pérák - Stín nad Prahou / Perak - Shadow over Prague
Страна: Чехия
Жанр: фантастика, боевик
Год выпуска: 2016
Продолжительность: 00:13:20
Перевод : Авторский (одноголосый) Трамвай-фильм
Режиссер: Марек Бергер
Описание: Перак, это национальный герой и городская легенда Чехословакии 1940-х годов, когда она была под властью Третьего Рейха. Перак появлялся в ночи на удивительных пружинах, нападая на патрули немцев. Рассказы о нем вдохновляли местное сопротивление.
Доп. информация: Короткометражный фильм.
Качество видео: DVDRip
Формат видео: AVI
Видео: Xvid, 1280x720, 25fps, 1970kbps
Аудио: MP3, 44100Hz, stereo, 160kbps

С русским переводом

MediaInfo

General
Complete name : Pérák- Stín nad Prahou.avi
Format : AVI
Format/Info : Audio Video Interleave
File size : 205 MiB
Duration : 13 min 19 s
Overall bit rate : 2 147 kb/s
Video
ID : 0
Format : MPEG-4 Visual
Format profile : Simple@L3
Format settings, BVOP : No
Format settings, QPel : No
Format settings, GMC : No warppoints
Format settings, Matrix : Default (H.263)
Codec ID : XVID
Codec ID/Hint : XviD
Duration : 13 min 19 s
Bit rate : 1 971 kb/s
Width : 1 280 pixels
Height : 720 pixels
Display aspect ratio : 16:9
Frame rate : 25.000 FPS
Color space : YUV
Chroma subsampling : 4:2:0
Bit depth : 8 bits
Scan type : Progressive
Compression mode : Lossy
Bits/(Pixel*Frame) : 0.086
Stream size : 188 MiB (92%)
Writing library : XviD 1.2.1 (UTC 2008-12-04)
Audio
ID : 1
Format : MPEG Audio
Format version : Version 1
Format profile : Layer 3
Format settings : Joint stereo
Codec ID : 55
Codec ID/Hint : MP3
Duration : 13 min 19 s
Bit rate mode : Constant
Bit rate : 160 kb/s
Channel(s) : 2 channels
Sampling rate : 44.1 kHz
Compression mode : Lossy
Stream size : 15.3 MiB (7%)
Alignment : Aligned on interleaves
Interleave, duration : 26 ms (0.65 video frame)
Writing library : LAME3.98.2

Скриншоты





Pérák.torrent
Torrent: Registered [ 2019-11-25 21:04 ]

Download .torrent

Download

16 KB

Status: checked
Completed: 5 times
Size: 205 MB
 
[Profile] [PM]

CROM@G

Gender: Male

Longevity: 4 years 2 months

Posts: 2554

Location: Прибалтика

Post 26-Nov-2019 04:32 (after 7 hours)

[Quote]

Какая то фантастическая хрень Ржака
[Profile] [PM]

Трамвай-фильм ®

Gender: Male

Longevity: 5 years 4 months

Posts: 1706

Location: Россия

Post 26-Nov-2019 19:05 (after 14 hours)

[Quote]

24016Какая то фантастическая хрень Ржака
Я и не сомневался, что ты нечто подобное напишешь. В выходные, если всё будет нормально, возьмусь за Театр.
[Profile] [PM]
Quick Reply

Name:

            
Heads necessary to send messages to enable JavaScript
Display posts:    
Reply to topic

Current time is: 13-Dec 02:49

All times are UTC + 3



You can post new topics in this forum
You can reply to topics in this forum
You can edit your posts in this forum
You cannot delete your posts in this forum
You cannot vote in polls in this forum
You can attach files in this forum
You can download files in this forum