Джесси Джеймс встречает дочь Франкенштейна / Jesse James Meets Frankenstein’s Daughter (Уильям Боудаин) [1966, США, вэстерн, ужасы, фантастика, DVDRip, HDTVRip-1080p] (АО : Трамвай-фильм)

Reply to topic
DL-List and Torrent activity
Size:  689 MB   |    Registered:  1 month 2 days   |    Completed:  2 times

Seeders:

Username ULR UL DL UL speed DL speed
pompilius 0 0- 0- 0- 0-
shows data only for the current session
 
   
 
 
 
Author Message

Трамвай-фильм ®

Gender: Male

Longevity: 5 years 3 months

Posts: 1655

Location: Россия

Post 17-Oct-2019 20:18

[Quote]

Джесси Джеймс встречает дочь Франкенштейна / Jesse James Meets Frankenstein’s Daughter
Страна: США, Circle Productions
Жанр: вэстерн, ужасы, фантастика
Год выпуска: 1966
Продолжительность: 01:23:09
Перевод: Авторский (одноголосый) Трамвай-фильм
Режиссер: Уильям Боудаин
В ролях:
Джон Луптон ... Джесси Джеймс
Нарда Оникс ... Доктор Мария Франкенштейн
Кол Болдер ... Хэнк Трейси
Эстелита Родригес ... Хуанита Лопес (как Эстелита)
Джим Дэвис ... Маршал Макфи
Стивен Герай ... Доктор Рудольф Франкенштейн
Рэйфорд Барнс ... Лонни Кэрри
Уильям Фосетт ... Дженсен
Нестор Паива ... Владелец салуна
Роджер Крид ... Бутч Кэрри
Описание: Потомки печально известного доктора Франкенштейна, изобретателя монстра, созданного из человеческих тел, бегут из Европы в Америку, чтобы продолжить свои медицинские эксперименты на Диком западе. Одновременно с этим, неподалёку, знаменитый преступник Джесси Джеймс попадает в засаду и уходит вместе с раненным товарищем, которому срочно требуется медицинская помощь.
Доп. информация: Фильм в Общественном достоянии. DVDRip взят с archive.org
Качество видео: HDTVRip-1080p
Формат: MKV
Видео: x264, 5800 кбит/с, 1426x1080, 23.976 к/с
Аудио 1: Русский (AC3, 2 ch, 256 Кбит/с)
Аудио 2: Английский (AC3, 2 ch, 256 Кбит/с)
================================
Качество видео: DVDRip
Формат: MKV
Видео: Xvid, 1007 кбит/с, 640x464, 29.976 к/с
Аудио 1: Русский (MP3, 2 ch, 128 Кбит/с)
========================
Работа над релизом:
Видеоряд найден на синемагеддоне.
Авторский перевод - Трамвай-фильм



Пример русского перевода

Дополнительно

слоган «SEE THE GREATEST NAMES IN TERROR HISTORY...IN ONE BIG SHOW!»
Формат изображения: 1.85 : 1
Формат копии: 16 mm (television prints)
35 mm
Формат съёмок: 35 mm
Изображение: цветное
Язык: английский

Знаете ли вы, что...

Отзывы

Рецензия

К 1966 году в ход пошли уже и внуки Франкенштейна (хотя в названии указана дочь). Брат и сестра Франкенштейны скрываются от австрийской полиции в маленькой мексиканской деревушке. И продолжают опыты деда, в этот раз над местными детьми.
Дети, правда, хлипковатые и быстро ломаются, поэтому госпоже Франкенштейн хочется мужика, да побольше, что бы сделать из него монстра.
Параллельно идет история очень быстрого стрелка Джесси Джеймса, скрывающегося в Мексике от правосудия. Пока Джеймс ведет себя мирно и зарабатывает на боксерских боях, благо его напарник, очень крепкий парень, боксер. И тут Джеймсу предложили ограбить кассу на выгодных условиях. Он согласен, не подозревая, что это ловушка. В результате Джесси чудом удалось сделать ноги, а вот приятеля его ранили и Джеймс привез того в дом, где жили врачи, те самые Франкенштейны. В общем в руки ученным прибыл идеальный экземпляр.
У фильма слабые оценки, но на самом деле он не так уж и плох. Объединить вестерн и научную фантастику, по моему до этого фильма, никто не додумался. Да это шаблонная история про Франкенштейна, но со стрельбой и ковбоями, что делает её необычной. Плюс тут весьма интересные актеры. Госпожу Франкенштейн сыграла эстонская актриса Нарда Оникс, отец которой в СССР считался военным преступником. Монстра сыграл простой дорожный рабочий. Ну и это последняя роль для начинающей кубинской актрисы Эстелии Родригез, сразу после съемок перебрала с наркотиками.
4 из 10

MediaInfo

Общее
Уникальный идентификатор : 190361158700587660820762089074526675461 (0x8F3639BF8B20370B82938687EA2E6205)
Полное имя : Jesse James Meets Frankenstein's Daughter 1966.x264.HDTVRip.1080p.Rus.kosmoaelita.mkv
Формат : Matroska
Версия формата : Version 4
Размер файла : 3,67 Гбайт
Продолжительность : 1 ч. 23 м.
Общий поток : 6314 Кбит/сек
Название фильма : Jesse James Meets Frankenstein's Daughter / Джесси Джеймс встречает дочь Франкенштейна / 1966 / HDTVRip-1080p / kosmoaelita
Дата кодирования : UTC 2019-10-19 06:22:23
Программа кодирования : mkvmerge v7.8.0 ('River Man') 32bit built on Mar 27 2015 16:18:02
Библиотека кодирования : libebml v1.3.1 + libmatroska v1.4.2
Attachments : poster.jpg
Видео
Идентификатор : 1
Формат : AVC
Формат/Информация : Advanced Video Codec
Профиль формата : High@L4.1
Настройки формата : CABAC / 5 Ref Frames
Параметр CABAC формата : Да
Параметр RefFrames формата : 5 кадров
Идентификатор кодека : V_MPEG4/ISO/AVC
Продолжительность : 1 ч. 23 м.
Битрейт : 5800 Кбит/сек
Ширина : 1424 пикселя
Высота : 1080 пикселей
Соотношение сторон : 4:3
Режим частоты кадров : Постоянный
Частота кадров : 23,976 (23976/1000) кадра/сек
Цветовое пространство : YUV
Субдискретизация насыщенности : 4:2:0
Битовая глубина : 8 бит
Тип развёртки : Прогрессивная
Бит/(Пиксели*Кадры) : 0.157
Размер потока : 3,30 Гбайт (90%)
Заголовок : http://kosmoaelita.com/viewtopic.php?t=2783
Библиотека кодирования : x264 core 130 r2273 b3065e6
Настройки программы : cabac=1 / ref=5 / deblock=1:-3:-3 / analyse=0x3:0x131 / me=umh / subme=9 / psy=1 / psy_rd=0.99:0.14 / mixed_ref=1 / me_range=32 / chroma_me=1 / trellis=2 / 8x8dct=1 / cqm=0 / deadzone=21,11 / fast_pskip=1 / chroma_qp_offset=-3 / threads=6 / lookahead_threads=1 / sliced_threads=0 / nr=0 / decimate=1 / interlaced=0 / bluray_compat=0 / constrained_intra=0 / bframes=8 / b_pyramid=2 / b_adapt=2 / b_bias=0 / direct=3 / weightb=1 / open_gop=0 / weightp=2 / keyint=210 / keyint_min=21 / scenecut=40 / intra_refresh=0 / rc_lookahead=80 / rc=2pass / mbtree=1 / bitrate=5800 / ratetol=1.0 / qcomp=0.65 / qpmin=0 / qpmax=69 / qpstep=4 / cplxblur=20.0 / qblur=0.5 / ip_ratio=1.25 / aq=1:0.90
Default : Да
Forced : Нет
Цветовой диапазон : Limited
Основные цвета : BT.709
Характеристики трансфера : BT.709
Коэффициенты матрицы : BT.709
Аудио #1
Идентификатор : 2
Формат : AC-3
Формат/Информация : Audio Coding 3
Коммерческое название : Dolby Digital
Идентификатор кодека : A_AC3
Продолжительность : 1 ч. 23 м.
Вид битрейта : Постоянный
Битрейт : 256 Кбит/сек
Каналы : 2 канала
Channel layout : L R
Частота : 48,0 КГц
Частота кадров : 31,250 кадров/сек (1536 SPF)
Битовая глубина : 16 бит
Метод сжатия : С потерями
Размер потока : 152 Мбайт (4%)
Заголовок : Русский АО (Трамвай-фильм)
Язык : Russian
ServiceKind/String : Complete Main
Default : Да
Forced : Нет
Аудио #2
Идентификатор : 3
Формат : AC-3
Формат/Информация : Audio Coding 3
Коммерческое название : Dolby Digital
Идентификатор кодека : A_AC3
Продолжительность : 1 ч. 23 м.
Вид битрейта : Постоянный
Битрейт : 256 Кбит/сек
Каналы : 2 канала
Channel layout : L R
Частота : 48,0 КГц
Частота кадров : 31,250 кадров/сек (1536 SPF)
Битовая глубина : 16 бит
Метод сжатия : С потерями
Размер потока : 152 Мбайт (4%)
Язык : English
ServiceKind/String : Complete Main
Default : Нет
Forced : Нет

От переводчика

Да уж, весьма своеобразный фильм, где смешалось всё - ковбои, индейцы, готические злодеи и "очарование топорного кино шестидесятых"

Скриншоты

















Скринлист

Файл дополнительно залит на ОБЛАКО Фильм дополнительно залит на letsupload.co
Jesse James Meets Frankenstein's Daughter (1966).torrent
Torrent: Registered [ 2019-10-17 20:18 ]

Download .torrent

Download

14 KB

Status: checked
Completed: 2 times
Size: 689 MB
 
[Profile] [PM]
Quick Reply

Name:

            
Heads necessary to send messages to enable JavaScript
Display posts:    
Reply to topic

Current time is: 20-Nov 07:29

All times are UTC + 3



You can post new topics in this forum
You can reply to topics in this forum
You cannot edit your posts in this forum
You cannot delete your posts in this forum
You cannot vote in polls in this forum
You cannot attach files in this forum
You can download files in this forum