Космические Пираты: Приключения Сайбер Рэйна / Космические Пираты Приключения Сайбер Рэйн / Star Raiders The Adventures of Saber Raine / Galaxy Raiders (Марк Стивен Гроув / Mark Steven Grove) [2017, США, Фантастика, приключени, BDRip-1080p] (ЛМ : Синема УС)

Reply to topic
DL-List and Torrent activity
Size:  5.88 GB   |    Registered:  13 days   |    Completed:  1 time

Seeder not seen: 6 hours

 
   
 
 
 
Author Message

Guest

Gender: Unknown

Longevity: 49 years

Post 08-Oct-2019 00:49

[Quote]

Космические Пираты: Приключения Сайбер Рэйна / Космические Пираты Приключения Сайбер Рэйн / Star Raiders The Adventures of Saber Raine / Galaxy Raiders
Страна: США, Fusion Factory Films
Жанр: Фантастика, приключени
Год выпуска: 2017
Продолжительность: 01:19:41
Перевод: Любительский (многоголосый) Синема УС
Режиссер: Марк Стивен Гроув / Mark Steven Grove
В ролях:
Casper Van Dien ... Saber Raine
Cynthia Rothrock ... Kandra Syn
Brit Laree ... Fade
Sara N. Salazar ... Caliope
James Lew ... Sinjin
Mark Steven Grove ... Kor'Rok
Holly Westwood ... Crotalus
Tyler Weaver Jr. ... Tyr
Sarah Sansoni ... Andromeda
Adam Lipsius ... Admiral Steele
Michael Grell ... Jax Grymm (as Mike Grell)
Nico Feula ... Dane
Andy Hankins ... Commander Voss
Kevin Sean Ryan ... Xorian
Will Beckingham ... Ryll
Описание: Сайбер Рэйн — авантюрист межгалактического масштаба, которого нанимают для перевозки трёх элитных солдат, выполняющих спасательную миссию. Все вместе они прибывают на далёкую планету, которая оказывается заселённой странными мутировавшими существами, а также мародёрами, наёмниками и кибернетически усиленными солдатами, которые охраняют таинственные руины давно забытой империи.
Качество видео: BDRip-1080p
Формат: MKV
Видео: x264, 9041 кбит/с, 1920x1080, 25 к/с
Аудио 1: Русский ЛМ (Синема УС) (DTS, 6 ch, 768 Кбит/с)
Аудио 2: Английский (DTS, 6 ch, 768 Кбит/с)
Работа над релизом:
Без рекламы.
Видеоряд найден на rarbg2018
Синхронизация русской дорожки, удаление рекламы и наложение русских фраз - kosmoaelita (oles)



Пример русского перевода

Дополнительно

Also Known As (AKA)
(original title) Star Raiders: The Adventures of Saber Raine
UK Galaxy Raiders
(working title) Rogue Space: The Adventures of Saber Raine

Отзывы

Синтия Ротрок ..... чую супер фильма
8 марта этого года мадам исполнилось 60 лет. Она, видимо, давно уже не машет ногами и не толкается сиськами. Синтия начала брать уроки боевых искусств в клубе, владельцем которого был лучший друг её родителей. В то время она и не представляла, что этот случайный интерес приведёт её к профессиональной карьере. Естественные способности Синтии были быстро замечены её учителями и они посоветовали ей выступить на открытых соревнованиях по Карате. К тому времени, когда она заработала свой первый Черный пояс, Синтия уже практически была чемпионом боевых искусств... В общем, сейчас зарабатывает как может...
-------------------------------
Космические корабли, бластеры и роботы впечатлили восьмилетнего племянника, а не меня. Наверное придется проекту кинозала в углу рекламной обложки, как на ТВ ставить значок 0+ т.е. для детей младшего возраста.
Сайбер Рэйна нанимают в спасательную операцию по поиску похищенных принца и принцессы, но все оказывается намного сложнее и концовка, не концовка явно напрашивается продолжение войны принцессы примкнувшей к темному лорду с его армией роботов.
Во общем маленьким детям понравился 3 из 10
--------------------------
Такое жалкое зрелище... давно не видел. Икебана из ошметков - обрюзгший Супермен, околевшая Синтия, нечкемные фигуранты вместо артистов, даже Азилум курит нервно в сторонке ... :-(

MediaInfo

Общее
Уникальный идентификатор : 234302230566886531006967927057900678836 (0xB044F7DB3469ECE9AB01CE203EE0AEB4)
Полное имя : Star Raiders The Adventures of Saber Raine 2017.x264.BDRip.mkv
Формат : Matroska
Версия формата : Version 4
Размер файла : 5,88 Гбайт
Продолжительность : 1 ч. 19 м.
Общий поток : 10,6 Мбит/сек
Название фильма : Космические Пираты: Приключения Сайбер Рэйна / Star Raiders: The Adventures of Saber Raine / 2017 / kosmoaelita
Дата кодирования : UTC 2019-09-30 05:24:51
Программа кодирования : mkvmerge v7.8.0 ('River Man') 32bit built on Mar 27 2015 16:18:02
Библиотека кодирования : libebml v1.3.1 + libmatroska v1.4.2
Attachments : poster _.jpg
Видео
Идентификатор : 1
Формат : AVC
Формат/Информация : Advanced Video Codec
Профиль формата : High@L4.1
Настройки формата : CABAC / 4 Ref Frames
Параметр CABAC формата : Да
Параметр RefFrames формата : 4 кадра
Идентификатор кодека : V_MPEG4/ISO/AVC
Продолжительность : 1 ч. 19 м.
Битрейт : 9041 Кбит/сек
Ширина : 1920 пикселей
Высота : 1080 пикселей
Соотношение сторон : 16:9
Режим частоты кадров : Постоянный
Частота кадров : 25,000 кадров/сек
Цветовое пространство : YUV
Субдискретизация насыщенности : 4:2:0
Битовая глубина : 8 бит
Тип развёртки : Прогрессивная
Бит/(Пиксели*Кадры) : 0.174
Размер потока : 5,03 Гбайт (85%)
Заголовок : kosmoaelita
Библиотека кодирования : x264 core 150 r2833 df79067
Настройки программы : cabac=1 / ref=4 / deblock=1:0:0 / analyse=0x3:0x113 / me=umh / subme=8 / psy=1 / psy_rd=1.00:0.00 / mixed_ref=1 / me_range=16 / chroma_me=1 / trellis=2 / 8x8dct=1 / cqm=0 / deadzone=21,11 / fast_pskip=0 / chroma_qp_offset=-2 / threads=12 / lookahead_threads=2 / sliced_threads=0 / nr=0 / decimate=1 / interlaced=0 / bluray_compat=0 / constrained_intra=0 / bframes=3 / b_pyramid=2 / b_adapt=1 / b_bias=0 / direct=1 / weightb=1 / open_gop=0 / weightp=2 / keyint=250 / keyint_min=25 / scenecut=40 / intra_refresh=0 / rc_lookahead=50 / rc=2pass / mbtree=1 / bitrate=9041 / ratetol=1.0 / qcomp=0.60 / qpmin=0 / qpmax=69 / qpstep=4 / cplxblur=20.0 / qblur=0.5 / ip_ratio=1.40 / aq=1:1.00
Default : Да
Forced : Нет
Аудио #1
Идентификатор : 2
Формат : DTS
Формат/Информация : Digital Theater Systems
Идентификатор кодека : A_DTS
Продолжительность : 1 ч. 19 м.
Вид битрейта : Постоянный
Битрейт : 768 Кбит/сек
Каналы : 6 каналов
Channel layout : C L R Ls Rs LFE
Частота : 48,0 КГц
Частота кадров : 93,750 кадра/сек (512 SPF)
Битовая глубина : 24 бит
Метод сжатия : С потерями
Размер потока : 438 Мбайт (7%)
Заголовок : Русский ЛМ (Синема УС) - вырезание русских фраз с дорожки от Кошара
Язык : Russian
Default : Да
Forced : Нет
Аудио #2
Идентификатор : 3
Формат : DTS
Формат/Информация : Digital Theater Systems
Идентификатор кодека : A_DTS
Продолжительность : 1 ч. 19 м.
Вид битрейта : Постоянный
Битрейт : 768 Кбит/сек
Каналы : 6 каналов
Channel layout : C L R Ls Rs LFE
Частота : 48,0 КГц
Частота кадров : 93,750 кадра/сек (512 SPF)
Битовая глубина : 24 бит
Метод сжатия : С потерями
Размер потока : 438 Мбайт (7%)
Язык : English
Default : Нет
Forced : Нет
Текст
Идентификатор : 4
Формат : UTF-8
Идентификатор кодека : S_TEXT/UTF8
Идентификатор кодека/Информация : UTF-8 Plain Text
Продолжительность : 9 с. 90 мс.
Битрейт : 1812 бит/сек
ElementCount : 46
Размер потока : 2,01 Кбайт (0%)
Default : Да
Forced : Нет

Скриншоты













Скринлист

Файл дополнительно залит на ОБЛАКО
Star Raiders The Adventures of Saber Raine 2017.x264.BDRip.1080p.Rus.kosmoaelita.mkv.torrent
Torrent: Registered [ 2019-10-08 00:49 ]

Download .torrent

Download

15 KB

Status: checked
Completed: 1 times
Size: 5.88 GB
 
[Profile] [PM]

Трамвай-фильм

Gender: Male

Longevity: 5 years 2 months

Posts: 1609

Location: Россия

Post 08-Oct-2019 19:21 (after 18 hours)

[Quote]

Да, старина Каспер уже не тот.
[Profile] [PM]
Quick Reply

Name:

            
Heads necessary to send messages to enable JavaScript
Display posts:    
Reply to topic

Current time is: 21-Oct 05:19

All times are UTC + 3



You cannot post new topics in this forum
You can reply to topics in this forum
You cannot edit your posts in this forum
You cannot delete your posts in this forum
You cannot vote in polls in this forum
You cannot attach files in this forum
You can download files in this forum