Классический Доктор Кто - Сезон 4 / Doctor Who Classic - Season 4 / Серии: 6 из 9 [1966-1967, Великобритания, Фантастика, DVDRip-AVC] ЛО (den904) + Original + Sub (Rus, Eng)

Reply to topic
 
Author Message

Darth_47 ®

Gender: Male

Longevity: 5 months 14 days

Posts: 249

Post 05-Oct-2019 19:07

[Quote]

Классический Доктор Кто - Сезон 4 / Doctor Who Classic - Season 4
Страна: Великобритания
Жанр: Фантастика
Год выпуска: 1966-1967
Продолжительность: ~00:24
Перевод 1: Любительский одноголосый закадровый (den904 для kosmoaelita.com)
Перевод 2: Субтитры (Русские, английские)
В ролях: Патрик Траутон, Фрейзер Хайнс, Аннеке Уиллс, Майкл Крейз, Дебора Уотлинг, Венди Падбери, Николас Кортни и др.
Описание: Доктор Кто (Doctor Who) — британский научно-фантастический телесериал компании BBC о загадочном путешественнике во времени, известном как «Доктор», который вместе со своими спутниками исследует время и пространство, борясь со вселенским злом. У него на вооружении - машина времени TARDIS - Time And Relative Dimension In Space. Снаружи это всего лишь британская полицейская будка 1950-х, а внутри гораздо более просторный пространственно-временной корабль.
Основную роль в четвертом сезоне играет Второй Доктор — второе воплощение персонажа Доктора, сыгранное актёром Патриком Тротоном. Доктор — путешественник во времени и пространстве. Вместе со своими компаньонами при помощи ТАРДИС он посещает различные планеты и времена. Когда он получает серьёзное повреждение, грозящее смертью, он может регенерировать, но при этом его внешность и характер меняются.
-Релиз
-Работа над релизом:
Перевод с англ. субтитров - TeamNotDead и karlivanovich
Русская озвучка - den904
Спонсор перевода и озвучки - 4st
-Доп. информация: Многие серии были безвозвратно утеряны, так что данная раздача представляет из себя сборную солянку из сохранившихся эпизодов, эпизодов, отреставрированных по фотографиям, и полностью анимированных с помощью мультипликации эпизодов.-Качество видео: DVDRip-AVC
Формат видео: MKV
Видео: MPEG4 Video (H264) 640x480 25fps 700 kb/s
Аудио 1: Dolby AC3 48000Hz stereo 192kbps
Аудио 2: AAC 44100Hz stereo 128 kb/s
Формат субтитров: softsub (SRT)

MediaInfo

General
Unique ID : 162692510515128466911895274538243358227 (0x7A657011E1DDDC7FFD844C1DA08E7E13)
Complete name : Doctor.Who.S04E01.The.Smugglers.Part.One.DVDRip.x264.Rus.Eng-kosmoaelita.mkv
Format : Matroska
Format version : Version 4
File size : 183 MiB
Duration : 24 min 59 s
Overall bit rate : 1 021 kb/s
Encoded date : UTC 2019-10-05 14:38:29
Writing application : mkvmerge v36.0.0 ('Is That Jazz?') 64-bit
Writing library : libebml v1.3.9 + libmatroska v1.5.2
Video
ID : 1
Format : AVC
Format/Info : Advanced Video Codec
Format profile : High@L3.1
Format settings : CABAC / 4 Ref Frames
Format settings, CABAC : Yes
Format settings, Reference fra : 4 frames
Codec ID : V_MPEG4/ISO/AVC
Duration : 24 min 59 s
Bit rate : 700 kb/s
Width : 640 pixels
Height : 480 pixels
Display aspect ratio : 4:3
Frame rate mode : Constant
Frame rate : 25.000 FPS
Color space : YUV
Chroma subsampling : 4:2:0
Bit depth : 8 bits
Scan type : Progressive
Bits/(Pixel*Frame) : 0.091
Stream size : 125 MiB (68%)
Writing library : x264 core 148 r2638 7599210
Encoding settings : cabac=1 / ref=3 / deblock=1:0:0 / analyse=0x3:0x113 / me=hex / subme=7 / psy=1 / psy_rd=1.00:0.00 / mixed_ref=1 / me_range=8 / chroma_me=1 / trellis=1 / 8x8dct=1 / cqm=0 / deadzone=21,11 / fast_pskip=1 / chroma_qp_offset=-2 / threads=4 / lookahead_threads=1 / sliced_threads=0 / nr=0 / decimate=1 / interlaced=0 / bluray_compat=0 / constrained_intra=0 / bframes=3 / b_pyramid=2 / b_adapt=1 / b_bias=0 / direct=1 / weightb=1 / open_gop=0 / weightp=2 / keyint=250 / keyint_min=25 / scenecut=40 / intra_refresh=0 / rc_lookahead=40 / rc=2pass / mbtree=1 / bitrate=700 / ratetol=1.0 / qcomp=0.60 / qpmin=0 / qpmax=69 / qpstep=4 / cplxblur=20.0 / qblur=0.5 / vbv_maxrate=800 / vbv_bufsize=1200 / nal_hrd=none / filler=0 / ip_ratio=1.40 / aq=1:1.00
Default : Yes
Forced : No
Audio #1
ID : 2
Format : AC-3
Format/Info : Audio Coding 3
Commercial name : Dolby Digital
Codec ID : A_AC3
Duration : 24 min 59 s
Bit rate mode : Constant
Bit rate : 192 kb/s
Channel(s) : 2 channels
Channel layout : L R
Sampling rate : 48.0 kHz
Frame rate : 31.250 FPS (1536 SPF)
Bit depth : 16 bits
Compression mode : Lossy
Delay relative to video : -2 ms
Stream size : 34.3 MiB (19%)
Language : Russian
Service kind : Complete Main
Default : Yes
Forced : No
Audio #2
ID : 3
Format : AAC LC
Format/Info : Advanced Audio Codec Low Complexity
Codec ID : A_AAC-2
Duration : 24 min 59 s
Bit rate : 128 kb/s
Channel(s) : 2 channels
Channel layout : L R
Sampling rate : 44.1 kHz
Frame rate : 43.066 FPS (1024 SPF)
Compression mode : Lossy
Delay relative to video : -2 ms
Stream size : 22.9 MiB (13%)
Language : English
Default : No
Forced : No
Text
ID : 4
Format : UTF-8
Codec ID : S_TEXT/UTF8
Codec ID/Info : UTF-8 Plain Text
Duration : 24 min 13 s
Bit rate : 158 b/s
Count of elements : 347
Stream size : 28.0 KiB (0%)
Language : Russian
Default : No
Forced : No

Скриншоты










[Profile] [PM]
Quick Reply

Name:

            
Heads necessary to send messages to enable JavaScript
Display posts:    
Reply to topic

Current time is: 21-Oct 06:08

All times are UTC + 3



You cannot post new topics in this forum
You can reply to topics in this forum
You cannot edit your posts in this forum
You cannot delete your posts in this forum
You cannot vote in polls in this forum
You cannot attach files in this forum
You cannot download files in this forum