Док Сэвидж: Человек из бронзы / Doc Savage: The Man of Bronze (Майкл Андерсон) [1975, США, приключения, фантастика, WebRip] (АО : Трамвай-фильм (2019))

Reply to topic
DL-List and Torrent activity
Size:  547 MB   |    Registered:  23 days   |    Completed:  2 times

Seeder not seen: 11 hours

 
   
 
 
 
Author Message

Трамвай-фильм ®

Gender: Male

Longevity: 5 years 2 months

Posts: 1609

Location: Россия

Post 28-Sep-2019 00:14

[Quote]

Док Сэвидж: Человек из бронзы / Doc Savage: The Man of Bronze
Страна: США
Жанр: приключения, фантастика
Год выпуска: 1975
Продолжительность: 01:40:16
Перевод: Авторский (одноголосый) Трамвай-фильм (2019)
Режиссер: Майкл Андерсон
В ролях: Рон Или, Пол Глисон, Уильям Лаккинг, Майкл Миллер, Элдон Куик, Даррел Зверлинг, Пол Уэкслер, Дженис Хейден, Робин Хилтон, Памела Хенсли
Описание: Фантастическо-приключенческая экранизация популярного в 1930-е годы романа о Докторе Севидже (гений множества наук, восточных единоборств и поборника справедливости). Вместе со своей командой "Великолепной пятеркой" Др. Севидж отправляется в латиноамериканскую страну Идальго, дабы выяснить причину смерти своего отца, который работал в отдаленной местности, и потом скончался при мистических обстоятельствах. Как выясняется, Севиджа младшего, тоже хотят "убрать", что бы не совал свой нос куда не следует. И в дело идет все - наемные убийцы, продажные чиновники и даже черная магия.
Доп. информация: Фильм снят по серии популярных книг и комиксов 1930-х. Это переделка моего более раннего перевода (еще на заре переводческой деятельности). В отличии от старой версии тут:
-новый звук;
-полный хронометраж (в старой версии отсутствовал фрагмент где Док читает свой "кодекс");
-исправлены неточности перевода;
-добавлены пояснительные титры.

Качество видео: WebRip
Формат видео: MKV
Видео: MPEG4 Video (H264), 640x348, 24fps, 546 kb/s
Аудио 1: AAC, 44100Hz, stereo, 128 kb/s
Аудио 2: AAC, 44100Hz, stereo, 64 kb/s
Формат субтитров: softsub (SRT)
Доп. информация о субтитрах: комментарии

MediaInfo

Format : Matroska
Format version : Version 4 / Version 2
File size : 547 MiB
Duration : 1 h 40 min
Overall bit rate : 763 kb/s
Encoded date : UTC 2019-09-27 18:59:46
Writing application : mkvmerge v7.1.0 ('Good Love') 32bit built on Jul 27 2014 12:59:18
Writing library : libebml v1.3.0 + libmatroska v1.4.1
Video
ID : 1
Format : AVC
Format/Info : Advanced Video Codec
Format profile : High@L3
Format settings : CABAC / 4 Ref Frames
Format settings, CABAC : Yes
Format settings, ReFrames : 4 frames
Format settings, GOP : M=1, N=72
Codec ID : V_MPEG4/ISO/AVC
Duration : 1 h 40 min
Bit rate : 546 kb/s
Width : 640 pixels
Height : 348 pixels
Display aspect ratio : 1.85:1
Original display aspect ratio : 1.85:1
Frame rate mode : Constant
Frame rate : 24.000 FPS
Color space : YUV
Chroma subsampling : 4:2:0
Bit depth : 8 bits
Scan type : Progressive
Bits/(Pixel*Frame) : 0.102
Stream size : 390 MiB (71%)
Writing library : x264 core 152 r2851 ba24899
Encoding settings : cabac=1 / ref=4 / deblock=1:2:2 / analyse=0x3:0x113 / me=hex / subme=2 / psy=1 / psy_rd=1.00:0.00 / mixed_ref=1 / me_range=16 / chroma_me=1 / trellis=0 / 8x8dct=1 / cqm=0 / deadzone=21,11 / fast_pskip=1 / chroma_qp_offset=0 / threads=11 / lookahead_threads=2 / sliced_threads=0 / nr=0 / decimate=1 / interlaced=0 / bluray_compat=0 / constrained_intra=0 / bframes=0 / weightp=2 / keyint=72 / keyint_min=7 / scenecut=0 / intra_refresh=0 / rc_lookahead=40 / rc=abr / mbtree=1 / bitrate=546 / ratetol=1.0 / qcomp=0.60 / qpmin=10 / qpmax=51 / qpstep=4 / ip_ratio=0.91 / aq=1:1.00
Default : Yes
Forced : No
Audio #1
ID : 2
Format : AAC
Format/Info : Advanced Audio Codec
Format profile : LC
Codec ID : A_AAC-2
Duration : 1 h 40 min
Bit rate : 152 kb/s
Channel(s) : 2 channels
Channel positions : Front: L R
Sampling rate : 44.1 kHz
Frame rate : 43.066 FPS (1024 SPF)
Compression mode : Lossy
Stream size : 109 MiB (20%)
Language : Russian
Default : Yes
Forced : No
Audio #2
ID : 3
Format : AAC
Format/Info : Advanced Audio Codec
Format profile : LC
Codec ID : A_AAC-2
Duration : 1 h 40 min
Bit rate : 64.0 kb/s
Channel(s) : 2 channels
Channel positions : Front: L R
Sampling rate : 44.1 kHz
Frame rate : 43.066 FPS (1024 SPF)
Compression mode : Lossy
Stream size : 45.9 MiB (8%)
Language : English
Default : No
Forced : No
Text
ID : 4
Format : UTF-8
Codec ID : S_TEXT/UTF8
Codec ID/Info : UTF-8 Plain Text
Duration : 1 h 38 min
Bit rate : 3 b/s
Count of elements : 19
Stream size : 2.24 KiB (0%)
Title : комментарии
Language : Russian
Default : Yes
Forced : No

О проекте

Вообще Джордж Пэлл собирался снять 4 фильма про Сэвиджа, и потом еще сериал, но плохие сборы завершили не только франшизу целиком (в конце фильма можно увидеть рекламу картины, которая так и не вышла), но и похоронили карьеру Пэлла (это был его последний фильм). Лично мне не понятно в чем была проблема, на мой взгляд кино довольно классное, а для 1975 года было не хуже других приключений. Впервые посмотрел его, наверно, году эта в 1991 на видаке (кстати не могу найти кассетный рип до сих пор)

Скриншоты





Doc Savage The Man of Bronze.mkv.torrent
Torrent: Registered [ 2019-09-28 00:14 ]

Download .torrent

Download

11 KB

Status: checked
Completed: 2 times
Size: 547 MB
 


Last edited by Трамвай-фильм on 2019-09-28 17:57; edited 1 time in total
[Profile] [PM]
Quick Reply

Name:

            
Heads necessary to send messages to enable JavaScript
Display posts:    
Reply to topic

Current time is: 21-Oct 05:20

All times are UTC + 3



You can post new topics in this forum
You can reply to topics in this forum
You cannot edit your posts in this forum
You cannot delete your posts in this forum
You cannot vote in polls in this forum
You cannot attach files in this forum
You can download files in this forum