Сердечный привет с земного шара / Srdecny pozdrav ze zemekoule (Ольдржих Липский / Oldrich Lipský) [1983, Чехословакия, Фантастика, Комедия, TVRip] (ЛО : Horror Maker)

Reply to topic
DL-List and Torrent activity
Size:  3 GB   |    Registered:  1 year   |    Completed:  13 times

Seeder not seen: 3 months 27 days

 
   
 
 
 
Author Message

zenya_1985 ®

Gender: Unknown

Longevity: 1 year

Posts: 58

Post 21-Sep-2019 16:40

[Quote]

Сердечный привет с земного шара / Srdecny pozdrav ze zemekoule / Srdečný pozdrav ze zeměkoule
Страна: Чехословакия
Жанр: Фантастика, Комедия
Год выпуска: 1983
Продолжительность: 01:38:27
Перевод: Любительский (одноголосый) _ Horror Maker
Режиссер: Ольдржих Липский / Oldrich Lipský
В ролях: Милан Ласица, Юлиус Сатинский, Иржи Мензель ,Надя Конвалинкова, Милош Копецки,
Людек Собота ,Иржи Лабус ,Яна Брежкова ,Ярослава Кречмерова ,Людек Копржива
Описание: Два инопланетянина «А» (Милан Ласица) и «В» (Юлиуc Сатинский) прибывают на разведку на Землю. Сначала они посещают Чехословакию и отправляются исследовать жизнь обычного земного человека, который выбран случайно компьютерной программой. Им стал учёный доктор Янский (Иржи Менцель). Во время проведения исследования инопланетную миссию ожидает много приключений и неожиданных сюрпризов.
Фильм снят как пародия на научно-фантастические фильмы. Остроумный, с чувством доброго юмора, с фантастической сюжетной линией, дополненный анимацией Владимира Йиранека, этот фильм показывает реальности жизни в социалистической Чехословакии 80-х годов XX века.
Качество видео: TVRip
Формат видео: MKV
Видео: MPEG4, 986х720, 4:3, 25.000 FPS, 3 790 kb/s
Аудио: AC-3, 48.0 kHz, 192 kb/s, Constant, 2 channels
Аудио 2: AC-3, 48.0 kHz, 384 kb/s, 6 channels
Формат субтитров: softsub (SSA/ASS)

MediaInfo

Format : Matroska
Format version : Version 4
File size : 3.00 GiB
Duration : 1 h 38 min
Overall bit rate : 4 369 kb/s
Movie name : Srdečný pozdrav ze zeměkoule (1982)
Encoded date : UTC 2019-09-21 06:28:48
Writing application : mkvmerge v7.9.0 ('Birds') 64bit
Writing library : libebml v1.3.1 + libmatroska v1.4.2
Video
ID : 1
Format : AVC
Format/Info : Advanced Video Codec
Format profile : High@L4.1
Format settings : CABAC / 11 Ref Frames
Format settings, CABAC : Yes
Format settings, ReFrames : 11 frames
Codec ID : V_MPEG4/ISO/AVC
Duration : 1 h 38 min
Bit rate : 3 790 kb/s
Width : 986 pixels
Height : 720 pixels
Display aspect ratio : 4:3
Frame rate mode : Constant
Frame rate : 25.000 FPS
Color space : YUV
Chroma subsampling : 4:2:0
Bit depth : 8 bits
Scan type : Progressive
Bits/(Pixel*Frame) : 0.214
Stream size : 2.61 GiB (87%)
Writing library : x264 core 155 r2867+82 a249126 t_mod_Custom_2 [8-bit@all X86_64]
Encoding settings : cabac=1 / ref=11 / deblock=1:-3:-3 / analyse=0x3:0x133 / me=umh / subme=10 / psy=1 / fade_compensate=0.00 / psy_rd=1.05:0.00 / mixed_ref=1 / me_range=32 / chroma_me=1 / trellis=2 / 8x8dct=1 / cqm=0 / deadzone=21,11 / fast_pskip=0 / chroma_qp_offset=-2 / threads=12 / lookahead_threads=2 / sliced_threads=0 / nr=0 / decimate=0 / interlaced=0 / bluray_compat=0 / constrained_intra=0 / fgo=0 / bframes=8 / b_pyramid=2 / b_adapt=2 / b_bias=0 / direct=3 / weightb=1 / open_gop=0 / weightp=2 / keyint=250 / keyint_min=25 / scenecut=40 / intra_refresh=0 / rc_lookahead=60 / rc=crf / mbtree=0 / crf=17.0000 / qcomp=0.60 / qpmin=0:0:0 / qpmax=69:69:69 / qpstep=4 / vbv_maxrate=62500 / vbv_bufsize=78125 / crf_max=0.0 / nal_hrd=none / filler=0 / ip_ratio=1.40 / pb_ratio=1.30 / aq=3:0.80 / aq-sensitivity=10.00 / aq-factor=1.00:1.00:1.00 / aq2=0 / aq3=0
Language : Czech
Default : Yes
Forced : No
Audio #1
ID : 2
Format : AC-3
Format/Info : Audio Coding 3
Commercial name : Dolby Digital
Codec ID : A_AC3
Duration : 1 h 38 min
Bit rate mode : Constant
Bit rate : 192 kb/s
Channel(s) : 2 channels
Channel layout : L R
Sampling rate : 48.0 kHz
Frame rate : 31.250 FPS (1536 SPF)
Bit depth : 16 bits
Compression mode : Lossy
Stream size : 135 MiB (4%)
Language : Russian
Service kind : Complete Main
Default : Yes
Forced : No
Audio #2
ID : 3
Format : AC-3
Format/Info : Audio Coding 3
Commercial name : Dolby Digital
Codec ID : A_AC3
Duration : 1 h 38 min
Bit rate mode : Constant
Bit rate : 384 kb/s
Channel(s) : 6 channels
Channel layout : L R C LFE Ls Rs
Sampling rate : 48.0 kHz
Frame rate : 31.250 FPS (1536 SPF)
Bit depth : 16 bits
Compression mode : Lossy
Stream size : 270 MiB (9%)
Language : Czech
Service kind : Complete Main
Default : No
Forced : No
Text
ID : 4
Format : UTF-8
Codec ID : S_TEXT/UTF8
Codec ID/Info : UTF-8 Plain Text
Duration : 1 h 36 min
Bit rate : 43 b/s
Count of elements : 910
Stream size : 30.9 KiB (0%)
Language : English
Default : No
Forced : No

Скриншоты














Скринлист

Благодарности:
snorrinor
PonchoUsatiy
Zenya_1985
pompilius
Ввикторрр
Dionisiy22
AlexNever
Файл дополнительно залит на ОБЛАКО
Сердечный привет с земли.mkv.torrent
Torrent: Registered [ 2019-09-21 16:40 ]

Download .torrent

Download

15 KB

Status: checked
Completed: 13 times
Size: 3 GB
 
[Profile] [PM]

zenya_1985 ®

Gender: Unknown

Longevity: 1 year

Posts: 58

Post 21-Sep-2019 20:20 (after 3 hours)

[Quote]

Очень понравился фильм, решил оставить отзыв кому интересно.
Отличная и остроумная чешская фантастическая комедия, очень добрая и позитивная сейчас так не снимают. Фильм не сходит до примитивного уровня и туалетного юмора, здесь очень важно уметь читать между строк и понять что все таки хотел донести режиссер: Действительно ли мы счастливы в существующем положении вещей, ценим ли мы то что имеем? именно природные богатство и существующий достаток, и действительно ли способны ли мы мы к гармонии при таком отношении ко всему, что нас окружает? 8 из 10
[Profile] [PM]
Display posts:    
Reply to topic

Current time is: 29-Sep 17:23

All times are UTC + 3



You cannot post new topics in this forum
You cannot reply to topics in this forum
You cannot edit your posts in this forum
You cannot delete your posts in this forum
You cannot vote in polls in this forum
You cannot attach files in this forum
You can download files in this forum