Призраки недр / Призраки из глубин / Haunters of the deep (Эндрю Богл) [1984, Великобритания, мистика, семейный, DVDRip] (АО : Трамвай-фильм)

Reply to topic
DL-List and Torrent activity
Size:  292 MB   |    Registered:  1 month 5 days   |    Completed:  4 times

Seeder not seen: 12 hours

 
   
 
 
 
Author Message

Трамвай-фильм ®

Gender: Male

Longevity: 5 years 2 months

Posts: 1609

Location: Россия

Post 15-Sep-2019 17:26

[Quote]

Призраки недр / Призраки из глубин / Haunters of the deep
Страна: Великобритания
Жанр: мистика, семейный
Год выпуска: 1984
Продолжительность: 00:58:32
Перевод: Авторский (одноголосый) Трамвай-фильм
Режиссер: Эндрю Богл
В ролях:
Эндрю Кейр ... Капитан Трегеллес
Барбара Юинг ... Миссис Холман
Боб Шерман ... Мистер Рош
Брайан Осборн ... мистер Холман
Том Уотсон ... Фрэнк Лейси
Шон Арнольд ... Дейв Шеннон
Питер Ловстрем ... Даниэль Холман
Патрик Мюррей ... Джек
Барри Крэйн ... Тревор Добсон
Гари Симмонс ... Джош Холман
Эми Тейлор ... Бекки Рош
Филипп Мартин ... Билли Брей
Описание: Американская горнодобывающая компания решает открыть старую шахту в Англии. На место приезжает президент фирмы со своей дочерью. Однако в скором времени старый горняк предупреждает, что шахта проклята, а у местного паренька начинаются странные видения...
Доп. информация: Вполне рафинированный детский "ужастик"
Качество видео: DVDRip
Формат: MKV
Видео: x264, 2235 кбит/с, 720x540, 25 к/с, crf=19
Аудио 1: Русский АО (Трамвай) (AC3, 2 ch, 192 Кбит/с)
Аудио 2: Английский (AC3, 2 ch, 192 Кбит/с)
Работа над релизом:
Рип с ДВД9 с синемагеддона - kosmoaelita
http://cinemageddon.net/details.php?id=156806
Перевод на слух с англ. - Трамвай-фильм


MediaInfo

Общее
Уникальный идентификатор : 176819496268981478905134324619460664090 (0x8506323E3315E427B6B3AC4EDFCEDB1A)
Полное имя : N:\BD-DISC\CFF-Scary Stories (1985)\Haunters of the deep 1984.x264.DVDRip.Rus.kosmoaelita.mkv
Формат : Matroska
Версия формата : Version 4
Размер файла : 1,07 Гбайт
Продолжительность : 58 м. 31 с.
Общий поток : 2621 Кбит/сек
Название фильма : Haunters of the deep / 1984 / rip from PAL DVD9 by kosmoaelita (2019-09-15), crf=19.77
Дата кодирования : UTC 2019-09-15 20:09:01
Программа кодирования : mkvmerge v6.6.0 ('The Edge Of The In Between') built on Dec 1 2013 17:55:00
Библиотека кодирования : libebml v1.3.0 + libmatroska v1.4.1
Attachments : VTS_01_1_001.mkv.encoding.log / poster.jpg
Видео
Идентификатор : 1
Формат : AVC
Формат/Информация : Advanced Video Codec
Профиль формата : High@L4.1
Настройки формата : CABAC / 8 Ref Frames
Параметр CABAC формата : Да
Параметр RefFrames формата : 8 кадров
Идентификатор кодека : V_MPEG4/ISO/AVC
Продолжительность : 58 м. 31 с.
Битрейт : 2235 Кбит/сек
Ширина : 720 пикселей
Высота : 540 пикселей
Соотношение сторон : 4:3
Режим частоты кадров : Постоянный
Частота кадров : 25,000 кадров/сек
Цветовое пространство : YUV
Субдискретизация насыщенности : 4:2:0
Битовая глубина : 8 бит
Тип развёртки : Прогрессивная
Бит/(Пиксели*Кадры) : 0.230
Размер потока : 915 Мбайт (83%)
Заголовок : http://kosmoaelita.com/viewtopic.php?t=2763
Библиотека кодирования : x264 core 130 r2273 b3065e6
Настройки программы : cabac=1 / ref=8 / deblock=1:-2:-2 / analyse=0x3:0x131 / me=umh / subme=11 / psy=1 / psy_rd=0.99:0.14 / mixed_ref=1 / me_range=24 / chroma_me=1 / trellis=2 / 8x8dct=1 / cqm=0 / deadzone=21,11 / fast_pskip=1 / chroma_qp_offset=-3 / threads=6 / lookahead_threads=1 / sliced_threads=0 / nr=0 / decimate=1 / interlaced=0 / bluray_compat=0 / constrained_intra=0 / bframes=8 / b_pyramid=2 / b_adapt=2 / b_bias=0 / direct=3 / weightb=1 / open_gop=0 / weightp=2 / keyint=210 / keyint_min=21 / scenecut=40 / intra_refresh=0 / rc_lookahead=80 / rc=2pass / mbtree=1 / bitrate=2235 / ratetol=1.0 / qcomp=0.65 / qpmin=0 / qpmax=69 / qpstep=4 / cplxblur=20.0 / qblur=0.5 / ip_ratio=1.25 / aq=1:0.90
Язык : English
Default : Да
Forced : Нет
Цветовой диапазон : Limited
Основные цвета : BT.601 PAL
Характеристики трансфера : BT.470 System B/G
Коэффициенты матрицы : BT.470 System B/G
Аудио #1
Идентификатор : 2
Формат : AC-3
Формат/Информация : Audio Coding 3
Коммерческое название : Dolby Digital
Идентификатор кодека : A_AC3
Продолжительность : 58 м. 31 с.
Вид битрейта : Постоянный
Битрейт : 192 Кбит/сек
Каналы : 2 канала
Channel layout : L R
Частота : 48,0 КГц
Частота кадров : 31,250 кадров/сек (1536 SPF)
Битовая глубина : 16 бит
Метод сжатия : С потерями
Размер потока : 80,4 Мбайт (7%)
Заголовок : Русский АО (Трамвай-фильм)
Язык : Russian
ServiceKind/String : Complete Main
Default : Да
Forced : Нет
Аудио #2
Идентификатор : 3
Формат : AC-3
Формат/Информация : Audio Coding 3
Коммерческое название : Dolby Digital
Идентификатор кодека : A_AC3
Продолжительность : 58 м. 31 с.
Вид битрейта : Постоянный
Битрейт : 192 Кбит/сек
Каналы : 2 канала
Channel layout : L R
Частота : 48,0 КГц
Частота кадров : 31,250 кадров/сек (1536 SPF)
Битовая глубина : 16 бит
Метод сжатия : С потерями
Размер потока : 80,4 Мбайт (7%)
Язык : English
ServiceKind/String : Complete Main
Default : Нет
Forced : Нет
Меню
00:03:49.720 : en:00:03:49.720
00:09:19.880 : en:00:09:19.880
00:13:24.400 : en:00:13:24.400
00:18:11.440 : en:00:18:11.440
00:25:23.360 : en:00:25:23.360
00:35:19.760 : en:00:35:19.760
00:39:45.240 : en:00:39:45.240
00:49:50.440 : en:00:49:50.440
00:58:31.800 : en:00:58:31.800

Скриншоты













Скринлист

Файл дополнительно залит на ОБЛАКО
Haunters.of.the.deep.torrent
Torrent: Registered [ 2019-09-15 17:26 ]

Download .torrent

Download

12 KB

Status: checked
Completed: 4 times
Size: 292 MB
 


Last edited by Трамвай-фильм on 2019-09-15 22:02; edited 3 times in total
[Profile] [PM]

PonchoUsatiy

Gender: Unknown

Longevity: 1 month 9 days

Posts: 34

Post 15-Sep-2019 17:36 (after 10 minutes)

[Quote]

спасибо
[Profile] [PM]

Трамвай-фильм ®

Gender: Male

Longevity: 5 years 2 months

Posts: 1609

Location: Россия

Post 15-Sep-2019 17:53 (after 17 minutes)

[Quote]

пжа. На раздаче до 12 ночи.
[Profile] [PM]

PonchoUsatiy

Gender: Unknown

Longevity: 1 month 9 days

Posts: 34

Post 16-Sep-2019 09:58 (after 16 hours)

[Quote]

непонятно раздал 6,22 гб, это столько юзеров скачало или это глюк, или рейтинг так делается ? ) woodpecker ab
[Profile] [PM]

CROM@G

Gender: Male

Longevity: 4 years 1 month

Posts: 2314

Location: Прибалтика

Post 16-Sep-2019 10:03 (after 4 minutes)

[Quote]

PonchoUsatiy, Где ты видишь 6.22 гб .? Дай скриншот
[Profile] [PM]

Darth_47

Gender: Male

Longevity: 5 months 14 days

Posts: 249

Post 16-Sep-2019 10:12 (after 9 minutes)

[Quote]

PonchoUsatiy, торренты из этого раздела доступны всему интернету, даже без регистрации. Отсюда и гигантские отдачи. Сам раньше удивлялся)
[Profile] [PM]

PonchoUsatiy

Gender: Unknown

Longevity: 1 month 9 days

Posts: 34

Post 16-Sep-2019 10:17 (after 4 minutes)

[Quote]


[Profile] [PM]

PonchoUsatiy

Gender: Unknown

Longevity: 1 month 9 days

Posts: 34

Post 16-Sep-2019 10:18 (after 1 minute)

[Quote]

ишь какие, вчера только набежали )
[Profile] [PM]

CROM@G

Gender: Male

Longevity: 4 years 1 month

Posts: 2314

Location: Прибалтика

Post 16-Sep-2019 10:22 (after 3 minutes)

[Quote]

PonchoUsatiy, Ну не Хдшный это рип .У тебя 292 метра все правильно. Фильм еще параллельно на другом трекере раздается
[Profile] [PM]

Трамвай-фильм ®

Gender: Male

Longevity: 5 years 2 months

Posts: 1609

Location: Россия

Post 16-Sep-2019 16:25 (after 6 hours)

[Quote]

Даже на двух
[Profile] [PM]

oles

Gender: Unknown

Post 30-Sep-2019 09:30 (after 13 days)

[Quote]

На диске из серии Scary Stories было еще два фильма
Out of the Darkness 1985
The Man from Nowhere 1975
https://cloud.mail.ru/public/3HRW/25Fngw5LQ
 

Трамвай-фильм ®

Gender: Male

Longevity: 5 years 2 months

Posts: 1609

Location: Россия

Post 30-Sep-2019 17:07 (after 7 hours)

[Quote]

22953На диске из серии Scary Stories было еще два фильма
Out of the Darkness 1985
The Man from Nowhere 1975
https://cloud.mail.ru/public/3HRW/25Fngw5LQ
Я в курсе. Поставил их в очередь, собственно Out of the Darkness - довольно слабый фильм. От этой же конторы (CFF) был еще диск Лондонские истории, но он вряд ли впишется в тематику портала.
[Profile] [PM]
Quick Reply

Name:

            
Heads necessary to send messages to enable JavaScript
Display posts:    
Reply to topic

Current time is: 21-Oct 05:42

All times are UTC + 3



You can post new topics in this forum
You can reply to topics in this forum
You cannot edit your posts in this forum
You cannot delete your posts in this forum
You cannot vote in polls in this forum
You cannot attach files in this forum
You can download files in this forum