Атака супермонстров / Attack of the Super monsters (Том Вэйнер) [1982, Япония, США, фантастика, VHSRip] [US Kyouryuu Daisensou Aizenborg] (АО : Трамвай-фильм)

Reply to topic
DL-List and Torrent activity
Size:  822 MB   |    Registered:  13 days   |    Completed:  2 times

Seeders:

Username ULR UL DL UL speed DL speed
pompilius 4.8 41721255983.89 GB 0- 0- 0-
shows data only for the current session
 
   
 
 
 
Author Message

Трамвай-фильм ®

Gender: Male

Longevity: 5 years 1 month

Posts: 1532

Location: Россия

Post 04-Sep-2019 11:37

[Quote]

Атака супермонстров / Attack of the Super monsters / US Kyouryuu Daisensou Aizenborg
Страна: Япония, США
Жанр: фантастика
Год выпуска: 1982
Продолжительность: 01:23:25
Перевод: Авторский (одноголосый) Трамвай-фильм
Режиссер: Том Вэйнер
В ролях: Кэм Кларк, Робин Левенсон, Джо Пэрри, Том Вэйнер и др.
Описание: Древние динозавры и не собирались вымирать, они отсиживались под землей и вот явили себя миру, а заодно решили очистить планету от людей. Но не лыком шиты хомо-сапиенсы и отпор гигантским рептилиям дадут киборги брат и сестра на крутом летающем танке
Доп. информация: Это очередная американская переделка японского сериала Kyouryuu Daisensou Aizenborg. Делал его в 2014 примерно, качество VHS, на тот момент DVD еще не было. Фильм стал развитием идеи ленты "Возвращение динозавров / Return of the Dinosaurs / Kyouryuu Tankentai Born Free"

Качество видео: VHSRip
Формат видео: MKV
Видео: Xvid, 480x368, 29.97fps, 1 222 Кбит/с
Аудио: MP3, 44100Hz, 128 Кбит/с, 2 канала
Формат субтитров: softsub (SRT)
Доп. информация о субтитрах: подписи, комменты

MediaInfo

General
Format : Matroska
Format version : Version 2
File size : 822 MiB
Duration : 1 h 23 min
Overall bit rate : 1 377 kb/s
Encoded date : UTC 2012-10-20 20:11:24
Writing application : mkvmerge v4.6.0 ('Still Crazy After All These Years') сборка от Mar 10 2011 02:50:32
Writing library : libebml v1.2.0 + libmatroska v1.1.0
Video
ID : 1
Format : MPEG-4 Visual
Format profile : Simple@L3
Format settings, BVOP : No
Format settings, QPel : No
Format settings, GMC : No warppoints
Format settings, Matrix : Default (H.263)
Codec ID : V_MS/VFW/FOURCC / XVID
Codec ID/Hint : XviD
Duration : 1 h 23 min
Bit rate : 1 222 kb/s
Width : 480 pixels
Height : 368 pixels
Display aspect ratio : 4:3
Frame rate mode : Constant
Frame rate : 29.970 FPS
Original frame rate : 29.000 FPS
Color space : YUV
Chroma subsampling : 4:2:0
Bit depth : 8 bits
Scan type : Progressive
Compression mode : Lossy
Bits/(Pixel*Frame) : 0.231
Stream size : 729 MiB (89%)
Writing library : XviD 1.2.1 (UTC 2008-12-04)
Default : Yes
Forced : No
Audio
ID : 2
Format : MPEG Audio
Format version : Version 1
Format profile : Layer 3
Format settings : Joint stereo / MS Stereo
Muxing mode : Header stripping
Codec ID : A_MPEG/L3
Codec ID/Hint : MP3
Duration : 1 h 23 min
Bit rate mode : Constant
Bit rate : 128 kb/s
Channel(s) : 2 channels
Sampling rate : 44.1 kHz
Compression mode : Lossy
Stream size : 76.4 MiB (9%)
Writing library : LAME3.98.2
Default : Yes
Forced : No
Text
ID : 3
Format : UTF-8
Codec ID : S_TEXT/UTF8
Codec ID/Info : UTF-8 Plain Text
Default : Yes
Forced : No

Скриншоты






Файл дополнительно залит на ОБЛАКО
Attack.of.the.Supermonsters.Tramvai.film.mkv.torrent
Torrent: Registered [ 2019-09-04 11:38 ]

Download .torrent

Download

17 KB

Status: checked
Completed: 2 times
Size: 822 MB
 
[Profile] [PM]
Quick Reply

Name:

            
Heads necessary to send messages to enable JavaScript
Display posts:    
Reply to topic

Current time is: 18-Sep 08:05

All times are UTC + 3



You can post new topics in this forum
You can reply to topics in this forum
You cannot edit your posts in this forum
You cannot delete your posts in this forum
You cannot vote in polls in this forum
You cannot attach files in this forum
You can download files in this forum