Возвращение динозавров / Return of the Dinosaurs (Ларри Смит, Акира Тцубурая, Кочии Такано) [1983, Япония, США, фантастика, VHSRip] [US Kyouryuu Tankentai Born Free] (АО : Трамвай-фильм)

Reply to topic
DL-List and Torrent activity
Size:  400 MB   |    Registered:  14 days   |    Completed:  2 times

Seeders:

Username ULR UL DL UL speed DL speed
pompilius 0 0- 0- 0- 0-
shows data only for the current session
 
   
 
 
 
Author Message

Трамвай-фильм ®

Gender: Male

Longevity: 5 years 1 month

Posts: 1532

Location: Россия

Post 03-Sep-2019 20:30

[Quote]

Возвращение динозавров / Return of the Dinosaurs / US Kyouryuu Tankentai Born Free
Страна: Япония, США
Жанр: фантастика
Год выпуска: 1983
Продолжительность: 01:22:06
Перевод: Авторский (одноголосый) Трамвай-фильм
Режиссер: Ларри Смит, Акира Тцубурая, Кочии Такано
Описание: Зловещая комета пронеслась мимо Земли, ее гравитационное поле подняло из недр планеты древние растения и животных. Миру вновь явились динозавры, древние ящеры. Однако условия реальности 21 века оказались для них неподходящими и головастые ученые решили создать Всемирную организацию по сохранению природы, которой было поручено спасть динозавров от реальностей технического прогресса.
Доп. информация: Это американская полуторочасовая адаптация 25-эпизодного сериала Kyouryuu Tankentai Born Free. Фильм совмещает кукольную и рисованную анимацию и близок сюжетно и стилистически к Атаке супермонстров.

Качество видео: VHSRip
Формат видео: MKV
Видео: MPEG4 Video (H264), 480x360, 29.97fps, 454 kb/s
Аудио 1: AAC, 44100Hz, stereo, 128 kb/s (русский)
Аудио 2: AAC, 44100Hz, stereo, 96 kb/s (английский)
Формат субтитров: softsub (SRT)
Доп. информация о субтитрах: Комментарии автора

MediaInfo

General
Format : Matroska
Format version : Version 4 / Version 2
File size : 400 MiB
Duration : 1 h 22 min
Overall bit rate : 681 kb/s
Encoded date : UTC 2019-09-02 19:20:02
Writing application : mkvmerge v7.1.0 ('Good Love') 32bit built on Jul 27 2014 12:59:18
Writing library : libebml v1.3.0 + libmatroska v1.4.1
Video
ID : 1
Format : AVC
Format/Info : Advanced Video Codec
Format profile : Baseline@L3
Format settings : 1 Ref Frames
Format settings, CABAC : No
Format settings, ReFrames : 1 frame
Codec ID : V_MPEG4/ISO/AVC
Duration : 1 h 22 min
Bit rate : 454 kb/s
Width : 480 pixels
Height : 360 pixels
Display aspect ratio : 4:3
Frame rate mode : Constant
Frame rate : 29.970 (30000/1001) FPS
Color space : YUV
Chroma subsampling : 4:2:0
Bit depth : 8 bits
Scan type : Progressive
Bits/(Pixel*Frame) : 0.088
Stream size : 267 MiB (67%)
Default : Yes
Forced : No
Audio #1
ID : 2
Format : AAC
Format/Info : Advanced Audio Codec
Format profile : LC
Codec ID : A_AAC-2
Duration : 1 h 22 min
Bit rate : 128 kb/s
Channel(s) : 2 channels
Channel positions : Front: L R
Sampling rate : 44.1 kHz
Frame rate : 43.066 FPS (1024 SPF)
Compression mode : Lossy
Delay relative to video : 17 ms
Stream size : 75.1 MiB (19%)
Language : Russian
Default : Yes
Forced : No
Audio #2
ID : 3
Format : AAC
Format/Info : Advanced Audio Codec
Format profile : LC
Codec ID : A_AAC-2
Duration : 1 h 22 min
Bit rate : 96.0 kb/s
Channel(s) : 2 channels
Channel positions : Front: L R
Sampling rate : 44.1 kHz
Frame rate : 43.066 FPS (1024 SPF)
Compression mode : Lossy
Delay relative to video : 17 ms
Stream size : 56.4 MiB (14%)
Language : English
Default : No
Forced : No
Text
ID : 4
Format : UTF-8
Codec ID : S_TEXT/UTF8
Codec ID/Info : UTF-8 Plain Text
Duration : 1 h 20 min
Bit rate : 4 b/s
Count of elements : 17
Stream size : 2.35 KiB (0%)
Title : Комментарии
Language : Russian
Default : Yes
Forced : No

Скриншоты






Файл дополнительно залит на ОБЛАКО
Return-of-the-Dinosaurs-(1983).torrent
Torrent: Registered [ 2019-09-03 20:30 ]

Download .torrent

Download

16 KB

Status: checked
Completed: 2 times
Size: 400 MB
 
[Profile] [PM]
Quick Reply

Name:

            
Heads necessary to send messages to enable JavaScript
Display posts:    
Reply to topic

Current time is: 18-Sep 08:06

All times are UTC + 3



You can post new topics in this forum
You can reply to topics in this forum
You cannot edit your posts in this forum
You cannot delete your posts in this forum
You cannot vote in polls in this forum
You cannot attach files in this forum
You can download files in this forum