Безумец из Мандораса / The Madmen of Mandoras (Дэвид Брэдли) [1963, США, фантастика, DVDRip] (АО : Трамвай-фильм)

Reply to topic
DL-List and Torrent activity
Size:  497 MB   |    Registered:  1 month   |    Completed:  3 times

Seeders:

Username ULR UL DL UL speed DL speed
pompilius 0 0- 0- 0- 0-
snorrinort 0 0- 0- 0- 0-
shows data only for the current session
 
   
 
 
 
Author Message

Трамвай-фильм ®

Gender: Male

Longevity: 5 years 1 month

Posts: 1532

Location: Россия

Post 17-Aug-2019 22:40

[Quote]

Безумец из Мандораса / The Madmen of Mandoras
Страна: США
Жанр: фантастика
Год выпуска: 1963
Продолжительность: 01:14:03
Перевод: Авторский (одноголосый) Трамвай-фильм
Cубтитры: нет
Режиссер: Дэвид Брэдли
В ролях: Уолтер Стокер, Одри Кери, Карлос Ривас, Джон Холлэнд, Маршалл Рид, Скотт Питерс, Дэни Линн, Нестор Пайва
Описание: В США похищают профессора Коулмана, разработчика антидота к нервно-паралитическому G-газу, следы ведут в небольшую латиноамериканскую страну Мандорас.
Доп. информация: В 1968 (т.е. через 5 лет после премьеры) этот фильм превратили в Они сохранили мозг Гитлера / They Saved Hitler's Brain

Качество видео: DVDRip
Видео: x264, 720x508, 23.976fps, 2256kbps
Аудио 1: AC3, 48000Hz, stereo, 192kbps
Аудио 2: AC3, 48000Hz, stereo, 192kbps

MediaInfo

Общее
Уникальный идентификатор : 207981257656575174163045607817406274499 (0x9C77BBB2F18AEE02940BB22DBFE75BC3)
Полное имя : N:\BD-DISC\DVD1_The_Madmen_Of_Mandoras\VIDEO_TS\Новая папка\The Madmen Of Mandoras 1963.x264.DVDRip.Rus.kosmoaelita.mkv
Формат : Matroska
Версия формата : Version 4
Размер файла : 1,37 Гбайт
Продолжительность : 1 ч. 14 м.
Общий поток : 2643 Кбит/сек
Название фильма : The Madmen Of Mandoras / The Madmen of Mandoras / 1963 / rip from NTSC DVD5 by kosmoaelita (2019-08-20), crf=18.69 StabSimple
Дата кодирования : UTC 2019-08-20 18:08:57
Программа кодирования : mkvmerge v6.6.0 ('The Edge Of The In Between') built on Dec 1 2013 17:55:00
Библиотека кодирования : libebml v1.3.0 + libmatroska v1.4.1
Attachments : poster.jpg / VTS_01_1_001.mkv.encoding.log
Видео
Идентификатор : 1
Формат : AVC
Формат/Информация : Advanced Video Codec
Профиль формата : High@L4.1
Настройки формата : CABAC / 8 Ref Frames
Параметр CABAC формата : Да
Параметр RefFrames формата : 8 кадров
Идентификатор кодека : V_MPEG4/ISO/AVC
Продолжительность : 1 ч. 14 м.
Битрейт : 2256 Кбит/сек
Ширина : 720 пикселей
Высота : 508 пикселей
Соотношение сторон : 1,417
Режим частоты кадров : Постоянный
Частота кадров : 23,976 (24000/1001) кадра/сек
Цветовое пространство : YUV
Субдискретизация насыщенности : 4:2:0
Битовая глубина : 8 бит
Тип развёртки : Прогрессивная
Бит/(Пиксели*Кадры) : 0.257
Размер потока : 1,14 Гбайт (83%)
Заголовок : http://kosmoaelita.com/viewtopic.php?t=2748
Библиотека кодирования : x264 core 130 r2273 b3065e6
Настройки программы : cabac=1 / ref=8 / deblock=1:-1:-1 / analyse=0x3:0x131 / me=umh / subme=11 / psy=1 / psy_rd=0.99:0.14 / mixed_ref=1 / me_range=24 / chroma_me=1 / trellis=2 / 8x8dct=1 / cqm=0 / deadzone=21,11 / fast_pskip=1 / chroma_qp_offset=-3 / threads=6 / lookahead_threads=1 / sliced_threads=0 / nr=0 / decimate=1 / interlaced=0 / bluray_compat=0 / constrained_intra=0 / bframes=8 / b_pyramid=2 / b_adapt=2 / b_bias=0 / direct=3 / weightb=1 / open_gop=0 / weightp=2 / keyint=210 / keyint_min=21 / scenecut=40 / intra_refresh=0 / rc_lookahead=80 / rc=2pass / mbtree=1 / bitrate=2256 / ratetol=1.0 / qcomp=0.65 / qpmin=0 / qpmax=69 / qpstep=4 / cplxblur=20.0 / qblur=0.5 / ip_ratio=1.25 / aq=1:0.90
Default : Да
Forced : Нет
Цветовой диапазон : Limited
Основные цвета : BT.601 NTSC
Характеристики трансфера : BT.601
Коэффициенты матрицы : BT.601
Statistics Tags Issue : mkvmerge v7.8.0 ('River Man') 32bit built on Mar 27 2015 16:18:02 2019-08-20 03:31:53 / mkvmerge v6.6.0 ('The Edge Of The In Between') built on Dec 1 2013 17:55:00 2019-08-20 18:08:57
FromStats_BitRate : 2256257
FromStats_Duration : 01:14:07.944000000
FromStats_FrameCount : 106644
FromStats_StreamSize : 1254463566
Аудио #1
Идентификатор : 2
Формат : AC-3
Формат/Информация : Audio Coding 3
Коммерческое название : Dolby Digital
Идентификатор кодека : A_AC3
Продолжительность : 1 ч. 14 м.
Вид битрейта : Постоянный
Битрейт : 192 Кбит/сек
Каналы : 2 канала
Channel layout : L R
Частота : 48,0 КГц
Частота кадров : 31,250 кадров/сек (1536 SPF)
Битовая глубина : 16 бит
Метод сжатия : С потерями
Размер потока : 102 Мбайт (7%)
Заголовок : Русский АО (Трамвай-фильм)
Язык : Russian
ServiceKind/String : Complete Main
Default : Да
Forced : Нет
Аудио #2
Идентификатор : 3
Формат : AC-3
Формат/Информация : Audio Coding 3
Коммерческое название : Dolby Digital
Идентификатор кодека : A_AC3
Продолжительность : 1 ч. 14 м.
Вид битрейта : Постоянный
Битрейт : 192 Кбит/сек
Каналы : 2 канала
Channel layout : L R
Частота : 48,0 КГц
Частота кадров : 31,250 кадров/сек (1536 SPF)
Битовая глубина : 16 бит
Метод сжатия : С потерями
Размер потока : 102 Мбайт (7%)
Язык : English
ServiceKind/String : Complete Main
Default : Нет
Forced : Нет
Statistics Tags Issue : mkvmerge v7.8.0 ('River Man') 32bit built on Mar 27 2015 16:18:02 2019-08-20 03:31:53 / mkvmerge v6.6.0 ('The Edge Of The In Between') built on Dec 1 2013 17:55:00 2019-08-20 18:08:57
FromStats_BitRate : 192000
FromStats_Duration : 01:14:07.968000000
FromStats_FrameCount : 138999
FromStats_StreamSize : 106751232
Меню
00:00:00.000 : :Chapter 1
00:29:20.008 : :Chapter 2
00:42:13.030 : :Chapter 3
01:01:28.226 : :Chapter 4

Скриншоты











Скринлист

Фильм дополнительно залит на ОБЛАКО
Madmen-Of-Mandoras.torrent
Torrent: Registered [ 2019-08-17 22:40 ]

Download .torrent

Download

20 KB

Status: checked
Completed: 3 times
Size: 497 MB
 
[Profile] [PM]
Quick Reply

Name:

            
Heads necessary to send messages to enable JavaScript
Display posts:    
Reply to topic

Current time is: 18-Sep 08:06

All times are UTC + 3



You can post new topics in this forum
You can reply to topics in this forum
You cannot edit your posts in this forum
You cannot delete your posts in this forum
You cannot vote in polls in this forum
You cannot attach files in this forum
You can download files in this forum