Огненные девы из далекого космоса / Fire Maidens from Outer Space (Сай Рот) [1956, Великобритания, Фантастика, HDRip] (АО : Трамвай фильм (2019 г.))

Reply to topic
DL-List and Torrent activity
Size:  1.41 GB   |    Registered:  16 days   |    Completed:  4 times

Seeders:

Username ULR UL DL UL speed DL speed
pompilius 0.3 414375617395 MB 0- 0- 0-
Anonymous 0 0- 0- 0- 0-
snorrinort 0 0- 0- 0- 0-
shows data only for the current session
 
   
 
 
 
Author Message

Трамвай-фильм ®

Gender: Male

Longevity: 5 years

Posts: 1493

Location: Россия

Post 05-Aug-2019 23:26

[Quote]

Огненные девы из далекого космоса / Fire Maidens from Outer Space
Страна: Великобритания
Жанр: Фантастика
Год выпуска: 1956
Продолжительность: 01:20:55
Перевод: Авторский (одноголосый) Трамвай фильм (2019 г.)
Режиссер: Сай Рот
В ролях: Энтони Дэкстер, Сюзан Шоу, Пол Карпентер, Жаклин Кёртис, Гарри Флауэр, Сидни Тафлер, Родни Диак, Оуэн Бэрри
Описание: В целях укрепления мира во всем Мире группа английских и американских ученых летит на недавно открытый 13-й спутник Юпитера. На нем они обнаруживают странное Существо и девушек, много девушек, но не всё так просто....
Доп. информация: В общем-то банальная тема Атлантиды с рекламой товарных знаков, в частности авиакомпании Транс Ворд Эйрлайнс, камеры Полароид и сигарет Честерфилд.
Ранее этот фильм делался мною по жуткому ТВ-рипу, да еще и резанному, который Саша потом склеивал. Звук и изображения там были отвратными, наконец-то я переделал его в качестве.
Качество видео: HDRip
Видео: MPEG4 Video (H264), 1280x720, 23.976fps, 2 270 kb/s
Аудио 1: AAC, 44100Hz, stereo, 128 kb/s (русский)
Аудио 2: AAC, 44100Hz, mono, 96 kb/s (английский)

MediaInfo

Complete name : Fire.Maidens.of.Outer.Space.1956.mkv
Format : Matroska
Format version : Version 4 / Version 2
File size : 1.41 GiB
Duration : 1 h 20 min
Overall bit rate : 2 497 kb/s
Encoded date : UTC 2019-08-05 20:02:35
Writing application : mkvmerge v7.1.0 ('Good Love') 32bit built on Jul 27 2014 12:59:18
Writing library : libebml v1.3.0 + libmatroska v1.4.1
Video
ID : 1
Format : AVC
Format/Info : Advanced Video Codec
Format profile : Main@L3.1
Format settings : CABAC / 3 Ref Frames
Format settings, CABAC : Yes
Format settings, ReFrames : 3 frames
Codec ID : V_MPEG4/ISO/AVC
Duration : 1 h 20 min
Bit rate : 2 270 kb/s
Width : 1 280 pixels
Height : 720 pixels
Display aspect ratio : 16:9
Frame rate mode : Constant
Frame rate : 23.976 (24000/1001) FPS
Color space : YUV
Chroma subsampling : 4:2:0
Bit depth : 8 bits
Scan type : Progressive
Bits/(Pixel*Frame) : 0.103
Stream size : 1.28 GiB (91%)
Default : Yes
Forced : No
Color range : Limited
Color primaries : BT.709
Transfer characteristics : BT.709
Matrix coefficients : BT.709
Audio #1
ID : 2
Format : AAC
Format/Info : Advanced Audio Codec
Format profile : LC
Codec ID : A_AAC-2
Duration : 1 h 20 min
Bit rate : 128 kb/s
Channel(s) : 2 channels
Channel positions : Front: L R
Sampling rate : 44.1 kHz
Frame rate : 43.066 FPS (1024 SPF)
Compression mode : Lossy
Stream size : 74.0 MiB (5%)
Title : АО Трамвай фильм
Language : Russian
Default : Yes
Forced : No
Audio #2
ID : 3
Format : AAC
Format/Info : Advanced Audio Codec
Format profile : LC
Codec ID : A_AAC-2
Duration : 1 h 20 min
Bit rate : 96.0 kb/s
Channel(s) : 1 channel
Channel positions : Front: C
Sampling rate : 44.1 kHz
Frame rate : 43.066 FPS (1024 SPF)
Compression mode : Lossy
Stream size : 55.6 MiB (4%)
Title : Оригинал
Language : English
Default : No
Forced : No

Скриншоты





Fire.Maidens.of.Outer.Space.1956.torrent
Torrent: Registered [ 2019-08-05 23:26 ]

Download .torrent

Download

14 KB

Status: checked
Completed: 4 times
Size: 1.41 GB
 


Last edited by Трамвай-фильм on 2019-08-08 21:24; edited 2 times in total
[Profile] [PM]

Darth_47

Gender: Male

Longevity: 3 months 16 days

Posts: 58

Post 06-Aug-2019 00:02 (after 36 minutes)

[Quote]

По описанию, трешачок подъехал, все, как мы любим)) Спасибо, заценим!
[Profile] [PM]

Трамвай-фильм ®

Gender: Male

Longevity: 5 years

Posts: 1493

Location: Россия

Post 06-Aug-2019 00:07 (after 4 minutes)

[Quote]

22393По описанию, трешачок подъехал, все, как мы любим)) Спасибо, заценим!
Да не, фильм не трешовый, даже с серьёзной миной сделан. И спецэффекты для 1950-х неплохие, но сюжетные ляпы...
[Profile] [PM]
Quick Reply

Name:

            
Heads necessary to send messages to enable JavaScript
Display posts:    
Reply to topic

Current time is: 22-Aug 14:24

All times are UTC + 3



You can post new topics in this forum
You can reply to topics in this forum
You cannot edit your posts in this forum
You cannot delete your posts in this forum
You cannot vote in polls in this forum
You cannot attach files in this forum
You can download files in this forum