Царство плаcтиков / The Kingdom of Plastics [1945, США, документальный, научно-познавательный, VHSRip] (АО : Трамвай-фильм)

Reply to topic
 
Author Message

Трамвай-фильм ®

Gender: Male

Longevity: 5 years

Posts: 1493

Location: Россия

Post 25-Jul-2019 17:10

[Quote]

Царство плаcтиков / The Kingdom of Plastics
Страна: США
Жанр: документальный, научно-познавательный
Год выпуска: 1945
Продолжительность: 00:10:30
Перевод: Авторский (одноголосый) Трамвай-фильм
Описание: Научно-познавательный фильм о возрастающей роли пластика в Мире и его потенциальном будущем (в котором мы живём сейчас).
Доп. информация: Знали бы авторы фильма, что пластик станет не спасением, а проклятием 21 века! Вдохновлен на перевод - фильмом про развитие телефонной связи. Рип взят с архив.орг
Качество видео: VHSRip
Формат видео: MKV
Видео: MPEG2 Video, 640х480@368x480 (4:3), 29.97fps, 3500kbps
Аудио 1: MP3, 44100Hz, stereo, 192kbps
Аудио 2: MPEG Audio, 44100Hz, mono, 112kbps

MediaInfo

Format : Matroska
Format version : Version 4 / Version 2
File size : 286 MiB
Duration : 10 min 29 s
Overall bit rate mode : Constant
Overall bit rate : 3 811 kb/s
Encoded date : UTC 2019-07-25 13:42:43
Writing application : mkvmerge v7.1.0 ('Good Love') 32bit built on Jul 27 2014 12:59:18
Writing library : libebml v1.3.0 + libmatroska v1.4.1
Video
ID : 1
Format : MPEG Video
Format version : Version 2
Format profile : Main@Main
Format settings : CustomMatrix / BVOP
Format settings, BVOP : Yes
Format settings, Matrix : Custom
Format settings, GOP : M=3, N=15
Format settings, picture struc : Frame
Codec ID : V_MPEG2
Codec ID/Info : MPEG 1 or 2 Video
Duration : 10 min 29 s
Bit rate mode : Constant
Bit rate : 3 500 kb/s
Width : 368 pixels
Height : 480 pixels
Display aspect ratio : 4:3
Frame rate mode : Variable
Frame rate : 29.970 FPS
Color space : YUV
Chroma subsampling : 4:2:0
Bit depth : 8 bits
Scan type : Interlaced
Scan order : Top Field First
Compression mode : Lossy
Bits/(Pixel*Frame) : 0.661
Time code of first frame : 00:00:00;00
Time code source : Group of pictures header
GOP, Open/Closed : Closed
Stream size : 263 MiB (92%)
Default : Yes
Forced : No
Audio #1
ID : 2
Format : MPEG Audio
Format version : Version 1
Format profile : Layer 3
Format settings : Joint stereo / MS Stereo
Codec ID : A_MPEG/L3
Codec ID/Hint : MP3
Duration : 10 min 29 s
Bit rate mode : Constant
Bit rate : 192 kb/s
Channel(s) : 2 channels
Sampling rate : 44.1 kHz
Frame rate : 38.281 FPS (1152 SPF)
Compression mode : Lossy
Stream size : 14.4 MiB (5%)
Title : Трамвай-фильм
Writing library : LAME3.98.2
Language : Russian
Default : Yes
Forced : No
Audio #2
ID : 3
Format : MPEG Audio
Format version : Version 1
Format profile : Layer 2
Codec ID : A_MPEG/L2
Codec ID/Hint : MP2
Duration : 10 min 29 s
Bit rate mode : Constant
Bit rate : 112 kb/s
Channel(s) : 1 channel
Sampling rate : 44.1 kHz
Frame rate : 38.281 FPS (1152 SPF)
Compression mode : Lossy
Stream size : 8.40 MiB (3%)
Title : Оригинал
Language : English
Default : No
Forced : No

Скриншоты





[Profile] [PM]
Display posts:    
Reply to topic

Current time is: 22-Aug 14:25

All times are UTC + 3



You cannot post new topics in this forum
You cannot reply to topics in this forum
You cannot edit your posts in this forum
You cannot delete your posts in this forum
You cannot vote in polls in this forum
You cannot attach files in this forum
You cannot download files in this forum