Аквила (сезон 2) / Aquila (season 2) Серии: 6 из 6 (Дэвид Белл) [1998, Великобритания, BBC Television Centre, фантастика, комедия, драма, семейный] (ЛО: den904, СТ: kosmoaelita-karlivanovich, Original)¶

Reply to topic
 
Author Message

croMAG ®

Gender: Male

Longevity: 3 years 11 months

Posts: 2200

Location: Прибалтика

Post 22-Jul-2019 00:39

[Quote]

Аквила (сезон 2) / Aquila (season 2)
Страна: Великобритания, BBC Television Centre
Жанр: фантастика, комедия, драма, семейный
Год выпуска: 1998
Продолжительность: 6 х ~00:23:00
Перевод 1: Любительский одноголосый закадровый (den904 для kosmoaelita.com)
Перевод 2: Субтитры (karlivanovich - на слух с английского)
Режиссер: Дэвид Белл
В ролях: Ben Brooks Ben Brooks ...Tom Baxter (13 episodes, 1997-1998)
Craig Vye Craig Vye ...Geoff Reynolds (13 episodes, 1997-1998)
Sallyanne Law Sallyanne Law ...Mrs. Baxter / ... (13 episodes, 1997-1998)
Hilary Mason Hilary Mason ...Mrs Murray / ... (12 episodes, 1997-1998)
Vivien Parry Vivien Parry ...Mrs Reynolds / ... (12 episodes, 1997-1998)
Thomas Wheatley Thomas Wheatley ...Professor Hare (7 episodes, 1997-1998)
Alastair Galbraith Alastair Galbraith ...Mr Urquart / ... (6 episodes, 1997-1998)
Constance Barrie Constance Barrie ...Alison (6 episodes, 1997-1998)
Peter Waddington Peter Waddington ...Mr. Wharton (6 episodes, 1997-1998)
Dale Rapley Dale Rapley ...Alan Pritchard (6 episodes, 1998)
Описание: Британские подростки находят в заброшенной пещере космический челнок пришельцев способный путешествовать в ближнем космосе и доставить их на материнский межзвездный корабль.-Релиз
-

Список серий

1. The Birthday Surprise - Сюрприз на День рождения
2. Battling Bobby - Боевой Бобби
3. An Elephant Surrounded by Blind Men - Слон, окружённый слепцами
4. The Gooseberry - Третий лишний
5. End of an Eyrie - Конец гнезда
6. On Second Thoughts, Let's Panic - А вообще-то давай паниковать
Качество: VHSRip
Формат: MKV
Видео кодек: DivX / XViD
Примерные параметры видео: DivX 5 640x460 25fps 910 kb/s
Примерные параметры аудио 1: Dolby AC3 48000Hz stereo 192kbps [Russian]
Примерные параметры аудио 2: MP3 44100Hz stereo 128kbps [English]
Субтитры: UTF-8 [S: Русский (karlivanovich) srt - на слух с английского
Подробные параметры каждой серии указаны в спойлере MediaInfo ниже.

MediaInfo

Aquila.s01e01.The.Birthday.Surprise.1998.VHSRip.Eng.RusSub.kosmoaelita.com

General
Unique ID : 249354979783113737265628157942680085563 (0xBB9805B12B4FDA67A60A3154B66D643B)
Complete name : Aquila.s01e01.The.Birthday.Surprise.1998.VHSRip.Eng.RusSub.kosmoaelita.com.mkv
Format : Matroska
Format version : Version 1
File size : 175 MiB
Duration : 23 min 9 s
Overall bit rate : 1 059 kb/s
Encoded date : UTC 2019-07-21 17:50:51
Writing application : mkvmerge v2.4.2 ('Oh My God') built on Jan 18 2009 17:30:28
Writing library : libebml v0.7.7 + libmatroska v0.8.1
Video
ID : 1
Format : MPEG-4 Visual
Format settings : BVOP1
Format settings, BVOP : 1
Format settings, QPel : No
Format settings, GMC : No warppoints
Format settings, Matrix : Default (H.263)
Muxing mode : Packed bitstream
Codec ID : V_MS/VFW/FOURCC / DX50
Codec ID/Hint : DivX 5
Duration : 23 min 9 s
Bit rate : 910 kb/s
Nominal bit rate : 4 854 kb/s
Width : 640 pixels
Height : 460 pixels
Display aspect ratio : 1.391
Frame rate mode : Constant
Frame rate : 25.000 FPS
Color space : YUV
Chroma subsampling : 4:2:0
Bit depth : 8 bits
Scan type : Progressive
Compression mode : Lossy
Bits/(Pixel*Frame) : 0.124
Stream size : 151 MiB (86%)
Title : Aquila 1998 (kosmoaelita.com)
Writing library : DivX 2310
Language : English
Default : Yes
Forced : No
Audio #1
ID : 2
Format : AC-3
Format/Info : Audio Coding 3
Commercial name : Dolby Digital
Codec ID : A_AC3
Duration : 23 min 9 s
Bit rate mode : Constant
Bit rate : 192 kb/s
Channel(s) : 2 channels
Channel layout : L R
Sampling rate : 48.0 kHz
Frame rate : 31.250 FPS (1536 SPF)
Bit depth : 16 bits
Compression mode : Lossy
Stream size : 31.8 MiB (15%)
Title : Русский ЛО (den904 для kosmoaelita.com)
Language : Russian
Service kind : Complete Main
Default : Yes
Forced : No
Audio #2
ID : 2
Format : MPEG Audio
Format version : Version 1
Format profile : Layer 3
Format settings : Joint stereo / MS Stereo
Codec ID : A_MPEG/L3
Codec ID/Hint : MP3
Duration : 23 min 9 s
Bit rate mode : Constant
Bit rate : 128 kb/s
Channel(s) : 2 channels
Sampling rate : 44.1 kHz
Compression mode : Lossy
Stream size : 21.2 MiB (12%)
Language : English
Default : Yes
Forced : No
Text
ID : 3
Format : UTF-8
Codec ID : S_TEXT/UTF8
Codec ID/Info : UTF-8 Plain Text
Title : Русский (на слух с английского - karlivanovich)
Language : Russian
Default : Yes
Forced : No

Aquila.s01e02.Battling.Bobby.1998.VHSRip.Eng.RusSub.kosmoaelita.com

General
Unique ID : 196940870777708565715542044999178965416 (0x94296E998C27A3A295451DA1D3C2D1A8)
Complete name : Aquila.s01e02.Battling.Bobby.1998.VHSRip.Eng.RusSub.kosmoaelita.com.mkv
Format : Matroska
Format version : Version 1
File size : 181 MiB
Duration : 22 min 26 s
Overall bit rate mode : Variable
Overall bit rate : 1 130 kb/s
Encoded date : UTC 2019-07-21 21:31:27
Writing application : mkvmerge v2.4.2 ('Oh My God') built on Jan 18 2009 17:30:28
Writing library : libebml v0.7.7 + libmatroska v0.8.1
Video
ID : 1
Format : MPEG-4 Visual
Format profile : Advanced Simple@L5
Format settings : BVOP2
Format settings, BVOP : 2
Format settings, QPel : No
Format settings, GMC : No warppoints
Format settings, Matrix : Default (H.263)
Muxing mode : Packed bitstream
Codec ID : V_MS/VFW/FOURCC / XVID
Codec ID/Hint : XviD
Duration : 22 min 26 s
Bit rate : 979 kb/s
Width : 640 pixels
Height : 460 pixels
Display aspect ratio : 1.391
Frame rate mode : Constant
Frame rate : 25.000 FPS
Color space : YUV
Chroma subsampling : 4:2:0
Bit depth : 8 bits
Scan type : Progressive
Compression mode : Lossy
Bits/(Pixel*Frame) : 0.133
Stream size : 157 MiB (87%)
Title : Aquila 1998 (kosmoaelita.com)
Writing library : XviD 67
Language : English
Default : Yes
Forced : No
Audio #1
ID : 2
Format : AC-3
Format/Info : Audio Coding 3
Commercial name : Dolby Digital
Codec ID : A_AC3
Duration : 22 min 26 s
Bit rate mode : Constant
Bit rate : 192 kb/s
Channel(s) : 2 channels
Channel layout : L R
Sampling rate : 48.0 kHz
Frame rate : 31.250 FPS (1536 SPF)
Bit depth : 16 bits
Compression mode : Lossy
Stream size : 30.8 MiB (15%)
Title : Русский ЛО (den904 для kosmoaelita.com)
Language : Russian
Service kind : Complete Main
Default : Yes
Forced : No
Audio #2
ID : 2
Format : MPEG Audio
Format version : Version 1
Format profile : Layer 3
Format settings : Joint stereo / MS Stereo
Codec ID : A_MPEG/L3
Codec ID/Hint : MP3
Duration : 22 min 26 s
Bit rate mode : Variable
Bit rate : 128 kb/s
Channel(s) : 2 channels
Sampling rate : 48.0 kHz
Frame rate : 41.667 FPS (1152 SPF)
Compression mode : Lossy
Stream size : 20.5 MiB (11%)
Writing library : LAME3.100UUUUU &œ‰–Ú
Language : English
Default : Yes
Forced : No
Text
ID : 3
Format : UTF-8
Codec ID : S_TEXT/UTF8
Codec ID/Info : UTF-8 Plain Text
Title : Русский (на слух с английского - karlivanovich)
Language : Russian
Default : Yes
Forced : No

Aquila.s01e03.An.Elephant.Surrounded.by.Blind.Men.1998.VHSRip.Eng.RusSub.kosmoaelita.com

General
Unique ID : 213576756137513545310831493465875542187 (0xA0AD6312E49511428E464E0F4949F0AB)
Complete name : Aquila.s01e03.An.Elephant.Surrounded.by.Blind.Men.1998.VHSRip.Eng.RusSub.kosmoaelita.com.mkv
Format : Matroska
Format version : Version 1
File size : 176 MiB
Duration : 21 min 37 s
Overall bit rate : 1 139 kb/s
Encoded date : UTC 2019-07-21 18:59:02
Writing application : mkvmerge v2.4.2 ('Oh My God') built on Jan 18 2009 17:30:28
Writing library : libebml v0.7.7 + libmatroska v0.8.1
Video
ID : 1
Format : MPEG-4 Visual
Format settings : BVOP1
Format settings, BVOP : 1
Format settings, QPel : No
Format settings, GMC : No warppoints
Format settings, Matrix : Default (H.263)
Muxing mode : Packed bitstream
Codec ID : V_MS/VFW/FOURCC / DX50
Codec ID/Hint : DivX 5
Duration : 21 min 37 s
Bit rate : 988 kb/s
Nominal bit rate : 4 854 kb/s
Width : 640 pixels
Height : 460 pixels
Display aspect ratio : 1.391
Frame rate mode : Constant
Frame rate : 25.000 FPS
Color space : YUV
Chroma subsampling : 4:2:0
Bit depth : 8 bits
Scan type : Progressive
Compression mode : Lossy
Bits/(Pixel*Frame) : 0.134
Stream size : 153 MiB (87%)
Title : Aquila 1998 (kosmoaelita.com)
Writing library : DivX 2310
Language : English
Default : Yes
Forced : No
Audio #1
ID : 2
Format : AC-3
Format/Info : Audio Coding 3
Commercial name : Dolby Digital
Codec ID : A_AC3
Duration : 21 min 37 s
Bit rate mode : Constant
Bit rate : 192 kb/s
Channel(s) : 2 channels
Channel layout : L R
Sampling rate : 48.0 kHz
Frame rate : 31.250 FPS (1536 SPF)
Bit depth : 16 bits
Compression mode : Lossy
Stream size : 29.7 MiB (14%)
Title : Русский ЛО (den904 для kosmoaelita.com)
Language : Russian
Service kind : Complete Main
Default : Yes
Forced : No
Audio #2
ID : 2
Format : MPEG Audio
Format version : Version 1
Format profile : Layer 3
Format settings : Joint stereo / MS Stereo
Codec ID : A_MPEG/L3
Codec ID/Hint : MP3
Duration : 21 min 37 s
Bit rate mode : Constant
Bit rate : 128 kb/s
Channel(s) : 2 channels
Sampling rate : 44.1 kHz
Compression mode : Lossy
Stream size : 19.8 MiB (11%)
Language : English
Default : Yes
Forced : No
Text
ID : 3
Format : UTF-8
Codec ID : S_TEXT/UTF8
Codec ID/Info : UTF-8 Plain Text
Title : Русский (на слух с английского - karlivanovich)
Language : Russian
Default : Yes
Forced : No

Aquila.s01e04.The.Gooseberry.1998.VHSRip.Eng.RusSub.kosmoaelita.com

General
Unique ID : 170540229098413256921862806528591350606 (0x804CDA780CFF27079C368F1C0A574B4E)
Complete name : Aquila.s01e04.The.Gooseberry.1998.VHSRip.Eng.RusSub.kosmoaelita.com.mkv
Format : Matroska
Format version : Version 1
File size : 175 MiB
Duration : 22 min 46 s
Overall bit rate : 1 075 kb/s
Encoded date : UTC 2019-07-21 19:00:42
Writing application : mkvmerge v2.4.2 ('Oh My God') built on Jan 18 2009 17:30:28
Writing library : libebml v0.7.7 + libmatroska v0.8.1
Video
ID : 1
Format : MPEG-4 Visual
Format settings : BVOP1
Format settings, BVOP : 1
Format settings, QPel : No
Format settings, GMC : No warppoints
Format settings, Matrix : Default (H.263)
Muxing mode : Packed bitstream
Codec ID : V_MS/VFW/FOURCC / DX50
Codec ID/Hint : DivX 5
Duration : 22 min 46 s
Bit rate : 926 kb/s
Nominal bit rate : 4 854 kb/s
Width : 640 pixels
Height : 460 pixels
Display aspect ratio : 1.391
Frame rate mode : Constant
Frame rate : 25.000 FPS
Color space : YUV
Chroma subsampling : 4:2:0
Bit depth : 8 bits
Scan type : Progressive
Compression mode : Lossy
Bits/(Pixel*Frame) : 0.126
Stream size : 151 MiB (86%)
Title : Aquila 1998 (kosmoaelita.com)
Writing library : DivX 2310
Language : English
Default : Yes
Forced : No
Audio #1
ID : 2
Format : AC-3
Format/Info : Audio Coding 3
Commercial name : Dolby Digital
Codec ID : A_AC3
Duration : 22 min 46 s
Bit rate mode : Constant
Bit rate : 192 kb/s
Channel(s) : 2 channels
Channel layout : L R
Sampling rate : 48.0 kHz
Frame rate : 31.250 FPS (1536 SPF)
Bit depth : 16 bits
Compression mode : Lossy
Stream size : 31.3 MiB (15%)
Title : Русский ЛО (den904 для kosmoaelita.com)
Language : Russian
Service kind : Complete Main
Default : Yes
Forced : No
Audio #2
ID : 2
Format : MPEG Audio
Format version : Version 1
Format profile : Layer 3
Format settings : Joint stereo / MS Stereo
Codec ID : A_MPEG/L3
Codec ID/Hint : MP3
Duration : 22 min 46 s
Bit rate mode : Constant
Bit rate : 128 kb/s
Channel(s) : 2 channels
Sampling rate : 44.1 kHz
Compression mode : Lossy
Stream size : 20.8 MiB (12%)
Language : English
Default : Yes
Forced : No
Text
ID : 3
Format : UTF-8
Codec ID : S_TEXT/UTF8
Codec ID/Info : UTF-8 Plain Text
Title : Русский (на слух с английского - karlivanovich)
Language : Russian
Default : Yes
Forced : No

Aquila.s01e05.End.of.an.Eyrie.1998.VHSRip.Eng.RusSub.kosmoaelita.com

General
Unique ID : 182899547766218164756289101447420707464 (0x89992BED0BC41609A76A532711600288)
Complete name : Aquila.s01e05.End.of.an.Eyrie.1998.VHSRip.Eng.RusSub.kosmoaelita.com.mkv
Format : Matroska
Format version : Version 1
File size : 175 MiB
Duration : 22 min 37 s
Overall bit rate : 1 081 kb/s
Encoded date : UTC 2019-07-26 12:03:57
Writing application : mkvmerge v2.4.2 ('Oh My God') built on Jan 18 2009 17:30:28
Writing library : libebml v0.7.7 + libmatroska v0.8.1
Video
ID : 1
Format : MPEG-4 Visual
Format settings : BVOP1
Format settings, BVOP : 1
Format settings, QPel : No
Format settings, GMC : No warppoints
Format settings, Matrix : Default (H.263)
Muxing mode : Packed bitstream
Codec ID : V_MS/VFW/FOURCC / DX50
Codec ID/Hint : DivX 5
Duration : 22 min 37 s
Bit rate : 931 kb/s
Nominal bit rate : 4 854 kb/s
Width : 640 pixels
Height : 460 pixels
Display aspect ratio : 1.391
Frame rate mode : Constant
Frame rate : 25.000 FPS
Color space : YUV
Chroma subsampling : 4:2:0
Bit depth : 8 bits
Scan type : Progressive
Compression mode : Lossy
Bits/(Pixel*Frame) : 0.127
Stream size : 151 MiB (86%)
Title : Aquila 1998 (kosmoaelita.com)
Writing library : DivX 2310
Language : English
Default : Yes
Forced : No
Audio
ID : 2
Format : MPEG Audio
Format version : Version 1
Format profile : Layer 3
Format settings : Joint stereo / MS Stereo
Codec ID : A_MPEG/L3
Codec ID/Hint : MP3
Duration : 22 min 37 s
Bit rate mode : Constant
Bit rate : 128 kb/s
Channel(s) : 2 channels
Sampling rate : 44.1 kHz
Compression mode : Lossy
Stream size : 20.7 MiB (12%)
Language : English
Default : Yes
Forced : No
Text
ID : 3
Format : UTF-8
Codec ID : S_TEXT/UTF8
Codec ID/Info : UTF-8 Plain Text
Title : Русский (на слух с английского - karlivanovich)
Language : Russian
Default : Yes
Forced : No

Aquila.s01e06.On.Second.Thoughts,Let's.Panic.1998.VHSRip.Eng.RusSub.kosmoaelita.com

General
Unique ID : 173196588930585599705195783262254265437 (0x824C731ECCB0BA8FA72F1E5D9365F45D)
Complete name : Aquila.s01e06.On.Second.Thoughts,Let's.Panic.1998.VHSRip.Eng.RusSub.kosmoaelita.com.mkv
Format : Matroska
Format version : Version 1
File size : 175 MiB
Duration : 23 min 5 s
Overall bit rate : 1 060 kb/s
Encoded date : UTC 2019-07-26 12:04:40
Writing application : mkvmerge v2.4.2 ('Oh My God') built on Jan 18 2009 17:30:28
Writing library : libebml v0.7.7 + libmatroska v0.8.1
Video
ID : 1
Format : MPEG-4 Visual
Format settings : BVOP1
Format settings, BVOP : 1
Format settings, QPel : No
Format settings, GMC : No warppoints
Format settings, Matrix : Default (H.263)
Muxing mode : Packed bitstream
Codec ID : V_MS/VFW/FOURCC / DX50
Codec ID/Hint : DivX 5
Duration : 23 min 5 s
Bit rate : 911 kb/s
Nominal bit rate : 4 854 kb/s
Width : 640 pixels
Height : 460 pixels
Display aspect ratio : 1.391
Frame rate mode : Constant
Frame rate : 25.000 FPS
Color space : YUV
Chroma subsampling : 4:2:0
Bit depth : 8 bits
Scan type : Progressive
Compression mode : Lossy
Bits/(Pixel*Frame) : 0.124
Stream size : 151 MiB (86%)
Title : Aquila 1998 (kosmoaelita.com)
Writing library : DivX 2310
Language : English
Default : Yes
Forced : No
Audio
ID : 2
Format : MPEG Audio
Format version : Version 1
Format profile : Layer 3
Format settings : Joint stereo / MS Stereo
Codec ID : A_MPEG/L3
Codec ID/Hint : MP3
Duration : 23 min 5 s
Bit rate mode : Constant
Bit rate : 128 kb/s
Channel(s) : 2 channels
Sampling rate : 44.1 kHz
Compression mode : Lossy
Stream size : 21.1 MiB (12%)
Language : English
Default : Yes
Forced : No
Text
ID : 3
Format : UTF-8
Codec ID : S_TEXT/UTF8
Codec ID/Info : UTF-8 Plain Text
Title : Русский (на слух с английского - karlivanovich)
Language : Russian
Default : Yes
Forced : No

Скриншоты



[Profile] [PM]

croMAG ®

Gender: Male

Longevity: 3 years 11 months

Posts: 2200

Location: Прибалтика

Post 26-Jul-2019 15:10 (after 4 days)

[Quote]

Добавлены заключительные 5-я и 6-я серии. Сериал завершен.
[Profile] [PM]

croMAG ®

Gender: Male

Longevity: 3 years 11 months

Posts: 2200

Location: Прибалтика

Post 02-Aug-2019 18:58 (after 7 days)

[Quote]

Добавлена озвучка в первые 4 серии.
[Profile] [PM]

pcevm

Gender: Male

Longevity: 5 months 10 days

Posts: 6

Location: Россия, Омск

Post 03-Aug-2019 17:08 (after 22 hours)

[Quote]

croMAG, добрый день в какое время кто есть на раздаче.
[Profile] [PM]

croMAG ®

Gender: Male

Longevity: 3 years 11 months

Posts: 2200

Location: Прибалтика

Post 03-Aug-2019 18:49 (after 1 hour 40 minutes)

[Quote]

pcevm, трекер лагает . Не знаю почему но меня в сидах не видать Я потом если не скачаешь залью на файлообменник
[Profile] [PM]

croMAG ®

Gender: Male

Longevity: 3 years 11 months

Posts: 2200

Location: Прибалтика

Post 03-Aug-2019 18:52 (after 3 minutes)

[Quote]

Бляха что то я у себя в компе напутал .Буду разбираться
[Profile] [PM]

Darth_47

Gender: Male

Longevity: 3 months 16 days

Posts: 58

Post 03-Aug-2019 19:12 (after 20 minutes)

[Quote]

Я на раздаче.
[Profile] [PM]

pcevm

Gender: Male

Longevity: 5 months 10 days

Posts: 6

Location: Россия, Омск

Post 03-Aug-2019 21:25 (after 2 hours 12 minutes)

[Quote]

Спасибо
[Profile] [PM]
Display posts:    
Reply to topic

Current time is: 22-Aug 15:51

All times are UTC + 3



You cannot post new topics in this forum
You cannot reply to topics in this forum
You cannot edit your posts in this forum
You cannot delete your posts in this forum
You cannot vote in polls in this forum
You cannot attach files in this forum
You cannot download files in this forum