Звёздный странник / Earth Star Voyager (Джеймс Голдстоун / James Goldstone) [1988, США, фантастика, боевик, приключения, VHSRip / DVDRemux] Dub (телеканал РТР) + Original Eng

Reply to topic
DL-List and Torrent activity
Size:  7.56 GB   |    Registered:  2 months 2 days   |    Completed:  5 times

Seeders:

Username ULR UL DL UL speed DL speed
pompilius 0.4 31296552962.91 GB 0- 0- 0-
marsel84 0.6 49878943414.65 GB 0- 0- 0-
shows data only for the current session
 
   
 
 
 
Author Message

Darth_47 ®

Gender: Male

Longevity: 4 months 11 days

Posts: 133

Post 16-Jul-2019 02:52

[Quote]

Звёздный странник / Earth Star Voyager
Страна: США
Жанр: фантастика, боевик, приключения
Год выпуска: 1988
Продолжительность: 1:32:33 + 01:27:45
Перевод: Профессиональный (дублированный) телеканал РТР
Субтитры: нет
Оригинальная аудиодорожка: английский
Режиссер: Джеймс Голдстоун / James Goldstone
В ролях: Брайан МакНамара, Дункан Регер, Джулия Монтгомери, Джейсон Михас, Том Брезнахан, Маргарет Лангрик, Шон О'Бирн, Питер Донат, Дина Гастон, Брюс Харвуд-Описание: Раритетный ТВ фильм - пилотная версия сериала, который, несмотря на многочисленные запросы фанатов, не получил продолжения и официально не тиражировался. Конец 21-го века. В то время, как экология планеты земля разрушена, с неба хлещут кислотные дожди и ощущается нехватка кислорода в атмосфере. Единственный шанс выживания человечества - переселение на планету Деметра, по предварительным данным, имеющую атмосферу и схожие с землёй климатические условия. До Деметры 18 световых лет. Поэтому в разведывательный полет снаряжают команду из молодых кадетов лётной академии…
Это сериал, рассказывающий о группе молодёжи и детей, избранных, чтобы лететь на «Звёздном Страннике» к новой планете, поскольку от Земли, благодаря бурной людской деятельности, почти ничего не осталось. Капитан, единственный взрослый в команде, выходит в тираж уже в самом начале, оставляя за главного двадцатилетнего мальчишку.-Над релизом работали:
Звук с кассеты предоставил: AlexMass
Работа со звуком: Darth_47, Джош
Озвучка отсутствующего на кассете фрагмента первого диска (48:19 - 49:22): Вячеслав Прошин
Постер: NEO58, Darth_47-Доп. информация: Ремукс в более современный и удобный формат MKV моей старой раздачи.-Сэмпл: https://yadi.sk/i/x21Gc0f9MMwIuA-Качество видео: VHSRip / DVDRemux
Формат видео: MKV
Видео кодек: MPEG2
Аудио кодек: AC3
Видео: MPEG2 Video 704x480 (4:3) 29.97fps 4522 kb/s
Аудио 1: Russian (Dolby AC3 48000Hz stereo 192kbps)
Аудио 2: English (Dolby AC3 48000Hz stereo 256kbps)

MediaInfo

Earth.Star.Voyager.DiskOne.1988.DVDRemux.VHSRip.Rus.Eng.mkv

General
Unique ID : 251339734548725000345699317840721708508 (0xBD1645A839D1B7F68EFA39E6A41385DC)
Complete name : 1988 Звёздный странник (Earth Star Voyager) DVDRemux\Earth.Star.Voyager.DiskOne.1988.DVDRemux.VHSRip.Rus.Eng.mkv
Format : Matroska
Format version : Version 1
File size : 3.28 GiB
Duration : 1 h 32 min
Overall bit rate mode : Variable
Overall bit rate : 5 071 kb/s
Encoded date : UTC 2019-07-15 22:26:25
Writing application : mkvmerge v2.4.2 ('Oh My God') built on Jan 18 2009 17:30:28
Writing library : libebml v0.7.7 + libmatroska v0.8.1
Video
ID : 1
Format : MPEG Video
Format version : Version 2
Format profile : Main@Main
Format settings : CustomMatrix / BVOP
Format settings, BVOP : Yes
Format settings, Matrix : Custom
Format settings, GOP : M=3, N=15
Format settings, picture struc : Frame
Codec ID : V_MPEG2
Codec ID/Info : MPEG 1 or 2 Video
Duration : 1 h 32 min
Bit rate mode : Variable
Bit rate : 4 522 kb/s
Maximum bit rate : 9 586 kb/s
Width : 704 pixels
Height : 480 pixels
Display aspect ratio : 4:3
Original display aspect ratio : 4:3
Frame rate mode : Constant
Frame rate : 29.970 (30000/1001) FPS
Standard : NTSC
Color space : YUV
Chroma subsampling : 4:2:0
Bit depth : 8 bits
Scan type : Interlaced
Scan order : Top Field First
Compression mode : Lossy
Bits/(Pixel*Frame) : 0.446
Time code of first frame : 00:00:00:00
Time code source : Group of pictures header
Stream size : 2.93 GiB (89%)
Title : Earth Star Voyager (1988)
Language : English
Default : Yes
Forced : No
Color primaries : BT.601 NTSC
Transfer characteristics : BT.601
Matrix coefficients : BT.601
Statistics Tags Issue : MakeMKV v1.14.4 win(x64-release) 2019-07-15 21:37:37 / mkvmerge v2.4.2 ('Oh My God') built on Jan 18 2009 17:30:28 2019-07-15 22:26:25
FromStats_BitRate : 4617897
FromStats_Duration : 01:32:39.053500000
FromStats_FrameCount : 166605
FromStats_OriginalSourceMedium : 0100E0
FromStats_StreamSize : 3208891796
Audio #1
ID : 2
Format : AC-3
Format/Info : Audio Coding 3
Commercial name : Dolby Digital
Codec ID : A_AC3
Duration : 1 h 32 min
Bit rate mode : Constant
Bit rate : 192 kb/s
Channel(s) : 2 channels
Channel layout : L R
Sampling rate : 48.0 kHz
Frame rate : 31.250 FPS (1536 SPF)
Bit depth : 16 bits
Compression mode : Lossy
Delay relative to video : 1 ms
Stream size : 127 MiB (4%)
Title : Профессиональный русский дубляж (канал РТР)
Language : Russian
Service kind : Complete Main
Default : Yes
Forced : No
Statistics Tags Issue : MakeMKV v1.14.4 win(x64-release) 2019-07-15 21:37:37 / mkvmerge v2.4.2 ('Oh My God') built on Jan 18 2009 17:30:28 2019-07-15 22:26:25
FromStats_BitRate : 192000
FromStats_Duration : 01:32:39.040000000
FromStats_FrameCount : 173720
FromStats_OriginalSourceMedium : 0180BD
FromStats_StreamSize : 133416960
Audio #2
ID : 3
Format : AC-3
Format/Info : Audio Coding 3
Commercial name : Dolby Digital
Codec ID : A_AC3
Duration : 1 h 32 min
Bit rate mode : Constant
Bit rate : 256 kb/s
Channel(s) : 2 channels
Channel layout : L R
Sampling rate : 48.0 kHz
Frame rate : 31.250 FPS (1536 SPF)
Bit depth : 16 bits
Compression mode : Lossy
Delay relative to video : 1 ms
Stream size : 170 MiB (5%)
Language : English
Service kind : Complete Main
Default : No
Forced : No
Statistics Tags Issue : MakeMKV v1.14.4 win(x64-release) 2019-07-15 21:37:37 / mkvmerge v2.4.2 ('Oh My God') built on Jan 18 2009 17:30:28 2019-07-15 22:26:25
FromStats_BitRate : 256000
FromStats_Duration : 01:32:39.040000000
FromStats_FrameCount : 173720
FromStats_OriginalSourceMedium : 0181BD
FromStats_StreamSize : 177889280
Menu
00:00:00.066 : en:Chapter 01
00:00:59.125 : en:Chapter 02
00:04:18.825 : en:Chapter 03
00:06:49.976 : en:Chapter 04
00:11:48.274 : en:Chapter 05
00:15:53.519 : en:Chapter 06
00:22:35.921 : en:Chapter 07
00:27:27.212 : en:Chapter 08
00:31:54.979 : en:Chapter 09
00:36:26.751 : en:Chapter 10
00:40:22.987 : en:Chapter 11
00:44:13.217 : en:Chapter 12
00:46:10.334 : en:Chapter 13
00:52:11.194 : en:Chapter 14
00:58:42.585 : en:Chapter 15
01:06:28.050 : en:Chapter 16
01:06:29.051 : en:Chapter 17
01:10:22.785 : en:Chapter 18
01:15:31.593 : en:Chapter 19
01:20:23.385 : en:Chapter 20
01:26:51.773 : en:Chapter 21

Earth.Star.Voyager.DiskTwo.1988.DVDRemux.VHSRip.Rus.Eng.mkv

General
Unique ID : 191816624468982164752793450383375878363 (0x904E89C03D9ABE6F83813815824448DB)
Complete name : 1988 Звёздный странник (Earth Star Voyager) DVDRemux\Earth.Star.Voyager.DiskTwo.1988.DVDRemux.VHSRip.Rus.Eng.mkv
Format : Matroska
Format version : Version 1
File size : 4.28 GiB
Duration : 1 h 27 min
Overall bit rate mode : Variable
Overall bit rate : 6 970 kb/s
Encoded date : UTC 2019-07-15 22:31:27
Writing application : mkvmerge v2.4.2 ('Oh My God') built on Jan 18 2009 17:30:28
Writing library : libebml v0.7.7 + libmatroska v0.8.1
Video
ID : 1
Format : MPEG Video
Format version : Version 2
Format profile : Main@Main
Format settings : CustomMatrix / BVOP
Format settings, BVOP : Yes
Format settings, Matrix : Custom
Format settings, GOP : M=3, N=15
Format settings, picture struc : Frame
Codec ID : V_MPEG2
Codec ID/Info : MPEG 1 or 2 Video
Duration : 1 h 27 min
Bit rate mode : Variable
Bit rate : 6 384 kb/s
Maximum bit rate : 9 586 kb/s
Width : 704 pixels
Height : 480 pixels
Display aspect ratio : 4:3
Original display aspect ratio : 4:3
Frame rate mode : Constant
Frame rate : 29.970 (30000/1001) FPS
Standard : NTSC
Color space : YUV
Chroma subsampling : 4:2:0
Bit depth : 8 bits
Scan type : Interlaced
Scan order : Top Field First
Compression mode : Lossy
Bits/(Pixel*Frame) : 0.630
Time code of first frame : 00:00:00:00
Time code source : Group of pictures header
Stream size : 3.92 GiB (92%)
Title : Earth Star Voyager (1988)
Language : English
Default : Yes
Forced : No
Color primaries : BT.601 NTSC
Transfer characteristics : BT.601
Matrix coefficients : BT.601
Statistics Tags Issue : MakeMKV v1.14.4 win(x64-release) 2019-07-15 21:41:15 / mkvmerge v2.4.2 ('Oh My God') built on Jan 18 2009 17:30:28 2019-07-15 22:31:27
FromStats_BitRate : 6517412
FromStats_Duration : 01:27:50.265000000
FromStats_FrameCount : 157950
FromStats_OriginalSourceMedium : 0100E0
FromStats_StreamSize : 4293561098
Audio #1
ID : 2
Format : AC-3
Format/Info : Audio Coding 3
Commercial name : Dolby Digital
Codec ID : A_AC3
Duration : 1 h 27 min
Bit rate mode : Constant
Bit rate : 192 kb/s
Channel(s) : 2 channels
Channel layout : L R
Sampling rate : 48.0 kHz
Frame rate : 31.250 FPS (1536 SPF)
Bit depth : 16 bits
Compression mode : Lossy
Stream size : 121 MiB (3%)
Title : Профессиональный русский дубляж (канал РТР)
Language : Russian
Service kind : Complete Main
Default : Yes
Forced : No
Statistics Tags Issue : MakeMKV v1.14.4 win(x64-release) 2019-07-15 21:41:15 / mkvmerge v2.4.2 ('Oh My God') built on Jan 18 2009 17:30:28 2019-07-15 22:31:27
FromStats_BitRate : 192000
FromStats_Duration : 01:27:50.208000000
FromStats_FrameCount : 164694
FromStats_OriginalSourceMedium : 0180BD
FromStats_StreamSize : 126484992
Audio #2
ID : 3
Format : AC-3
Format/Info : Audio Coding 3
Commercial name : Dolby Digital
Codec ID : A_AC3
Duration : 1 h 27 min
Bit rate mode : Constant
Bit rate : 256 kb/s
Channel(s) : 2 channels
Channel layout : L R
Sampling rate : 48.0 kHz
Frame rate : 31.250 FPS (1536 SPF)
Bit depth : 16 bits
Compression mode : Lossy
Stream size : 161 MiB (4%)
Language : English
Service kind : Complete Main
Default : No
Forced : No
Statistics Tags Issue : MakeMKV v1.14.4 win(x64-release) 2019-07-15 21:41:15 / mkvmerge v2.4.2 ('Oh My God') built on Jan 18 2009 17:30:28 2019-07-15 22:31:27
FromStats_BitRate : 256000
FromStats_Duration : 01:27:50.240000000
FromStats_FrameCount : 164695
FromStats_OriginalSourceMedium : 0181BD
FromStats_StreamSize : 168647680
Menu
00:00:00.066 : en:Chapter 01
00:08:53.099 : en:Chapter 02
00:13:30.376 : en:Chapter 03
00:20:00.766 : en:Chapter 04
00:26:58.683 : en:Chapter 05
00:33:48.092 : en:Chapter 06
00:40:59.023 : en:Chapter 07
00:44:13.717 : en:Chapter 08
00:47:26.410 : en:Chapter 09
00:54:07.310 : en:Chapter 10
01:01:01.724 : en:Chapter 11
01:08:36.178 : en:Chapter 12
01:14:49.051 : en:Chapter 13
01:21:01.423 : en:Chapter 14
01:27:08.790 : en:Chapter 15
01:27:14.796 : en:Chapter 16

Скриншот c названием фильма

Скриншоты

1988 Звёздный странник (Earth Star Voyager) DVDRemux.torrent
Torrent: Registered [ 2019-07-16 02:52 ]

Download .torrent

Download

19 KB

Status: checked
Completed: 5 times
Size: 7.56 GB
 
[Profile] [PM]
Display posts:    
Reply to topic

Current time is: 18-Sep 08:42

All times are UTC + 3



You cannot post new topics in this forum
You cannot reply to topics in this forum
You cannot edit your posts in this forum
You cannot delete your posts in this forum
You cannot vote in polls in this forum
You cannot attach files in this forum
You can download files in this forum