Звёздный странник / Earth Star Voyager (Джеймс Голдстоун / James Goldstone) [1988, США, фантастика, боевик, приключения, VHSRip / DVDRemux] Dub (телеканал РТР) + Rus Subs + Original Eng

Reply to topic
DL-List and Torrent activity
Size:  7.56 GB   |    Registered:  5 months 10 days   |    Completed:  2 times

Seeder not seen: 11 hours

 
   
 
 
 
Author Message

Darth_47 ®

Gender: Male

Longevity: 2 years 2 months

Posts: 883

Post 16-Jul-2019 02:52

[Quote]

Звёздный странник / Earth Star Voyager
Страна: США
Жанр: фантастика, боевик, приключения
Год выпуска: 1988
Продолжительность: 1:32:33 + 01:27:45
Перевод: Профессиональный (дублированный) телеканал РТР
Субтитры: русские (4u2ges)
Оригинальная аудиодорожка: английский
Режиссер: Джеймс Голдстоун / James Goldstone
В ролях: Брайан МакНамара, Дункан Регер, Джулия Монтгомери, Джейсон Михас, Том Брезнахан, Маргарет Лангрик, Шон О'Бирн, Питер Донат, Дина Гастон, Брюс Харвуд-Описание: Раритетный ТВ фильм - пилотная версия сериала, который, несмотря на многочисленные запросы фанатов, не получил продолжения и официально не тиражировался. Конец 21-го века. В то время, как экология планеты земля разрушена, с неба хлещут кислотные дожди и ощущается нехватка кислорода в атмосфере. Единственный шанс выживания человечества - переселение на планету Деметра, по предварительным данным, имеющую атмосферу и схожие с землёй климатические условия. До Деметры 18 световых лет. Поэтому в разведывательный полет снаряжают команду из молодых кадетов лётной академии…
Это сериал, рассказывающий о группе молодёжи и детей, избранных, чтобы лететь на «Звёздном Страннике» к новой планете, поскольку от Земли, благодаря бурной людской деятельности, почти ничего не осталось. Капитан, единственный взрослый в команде, выходит в тираж уже в самом начале, оставляя за главного двадцатилетнего мальчишку.-Над релизом работали:
Звук с кассеты предоставил: AlexMass
Работа со звуком: Darth_47, Джош
Озвучка отсутствующего на кассете фрагмента первого диска (48:19 - 49:22): Вячеслав Прошин
Постер: NEO58, Darth_47-Доп. информация: Ремукс в более современный и удобный формат MKV моей старой раздачи.-Сэмпл: https://yadi.sk/i/x21Gc0f9MMwIuA-Качество видео: VHSRip / DVDRemux
Формат видео: MKV
Видео кодек: MPEG2
Аудио кодек: AC3
Видео: MPEG2 Video 704x480 (4:3) 29.97fps 4522 kb/s
Аудио 1: Russian (Dolby AC3 48000Hz stereo 192kbps)
Аудио 2: English (Dolby AC3 48000Hz stereo 256kbps)
Субтитры: Русские (srt, UTF-8)

MediaInfo

Earth Star Voyager Disk One 1988.DVDRemux.VHSRip.Rus-Eng.mkv

General
Unique ID : 335697838380498548750291134294103951465 (0xFC8D0D4AA63412CCEB0B60A11D780869)
Complete name : Earth Star Voyager Disk One 1988.DVDRemux.VHSRip.Rus-Eng.mkv
Format : Matroska
Format version : Version 4
File size : 3.28 GiB
Duration : 1 h 32 min
Overall bit rate mode : Variable
Overall bit rate : 5 069 kb/s
Encoded date : UTC 2021-02-17 14:59:29
Writing application : mkvmerge v35.0.0 ('All The Love In The World') 64-bit
Writing library : libebml v1.3.9 + libmatroska v1.5.2
Video
ID : 1
Format : MPEG Video
Format version : Version 2
Format profile : Main@Main
Format settings : CustomMatrix / BVOP
Format settings, BVOP : Yes
Format settings, Matrix : Custom
Format settings, GOP : M=3, N=15
Format settings, picture struc : Frame
Codec ID : V_MPEG2
Codec ID/Info : MPEG 1 or 2 Video
Duration : 1 h 32 min
Bit rate mode : Variable
Bit rate : 4 618 kb/s
Maximum bit rate : 9 586 kb/s
Width : 704 pixels
Height : 480 pixels
Display aspect ratio : 4:3
Original display aspect ratio : 4:3
Frame rate mode : Constant
Frame rate : 29.970 (30000/1001) FPS
Standard : NTSC
Color space : YUV
Chroma subsampling : 4:2:0
Bit depth : 8 bits
Scan type : Interlaced
Scan order : Top Field First
Compression mode : Lossy
Bits/(Pixel*Frame) : 0.456
Time code of first frame : 00:00:00:00
Time code source : Group of pictures header
Stream size : 2.99 GiB (91%)
Title : Earth Star Voyager (1988)
Language : English
Default : Yes
Forced : No
Color primaries : BT.601 NTSC
Transfer characteristics : BT.601
Matrix coefficients : BT.601
Audio #1
ID : 2
Format : AC-3
Format/Info : Audio Coding 3
Commercial name : Dolby Digital
Codec ID : A_AC3
Duration : 1 h 32 min
Bit rate mode : Constant
Bit rate : 192 kb/s
Channel(s) : 2 channels
Channel layout : L R
Sampling rate : 48.0 kHz
Frame rate : 31.250 FPS (1536 SPF)
Compression mode : Lossy
Delay relative to video : 1 ms
Stream size : 127 MiB (4%)
Title : Профессиональный русский дубляж (канал РТР)
Language : Russian
Service kind : Complete Main
Default : Yes
Forced : No
Audio #2
ID : 3
Format : AC-3
Format/Info : Audio Coding 3
Commercial name : Dolby Digital
Codec ID : A_AC3
Duration : 1 h 32 min
Bit rate mode : Constant
Bit rate : 256 kb/s
Channel(s) : 2 channels
Channel layout : L R
Sampling rate : 48.0 kHz
Frame rate : 31.250 FPS (1536 SPF)
Compression mode : Lossy
Delay relative to video : 1 ms
Stream size : 170 MiB (5%)
Language : English
Service kind : Complete Main
Default : No
Forced : No
Text
ID : 4
Format : UTF-8
Codec ID : S_TEXT/UTF8
Codec ID/Info : UTF-8 Plain Text
Duration : 1 h 31 min
Bit rate : 95 b/s
Count of elements : 817
Stream size : 63.7 KiB (0%)
Title : Русские (4u2ges)
Language : Russian
Default : No
Forced : No
Menu
00:00:00.066 : en:Chapter 01
00:00:59.125 : en:Chapter 02
00:04:18.825 : en:Chapter 03
00:06:49.976 : en:Chapter 04
00:11:48.274 : en:Chapter 05
00:15:53.519 : en:Chapter 06
00:22:35.921 : en:Chapter 07
00:27:27.212 : en:Chapter 08
00:31:54.979 : en:Chapter 09
00:36:26.751 : en:Chapter 10
00:40:22.987 : en:Chapter 11
00:44:13.217 : en:Chapter 12
00:46:10.334 : en:Chapter 13
00:52:11.194 : en:Chapter 14
00:58:42.585 : en:Chapter 15
01:06:28.050 : en:Chapter 16
01:06:29.051 : en:Chapter 17
01:10:22.785 : en:Chapter 18
01:15:31.593 : en:Chapter 19
01:20:23.385 : en:Chapter 20
01:26:51.773 : en:Chapter 21

Earth Star Voyager Disk Two 1988.DVDRemux.VHSRip.Rus-Eng.mkv

General
Unique ID : 194727243789522368748735244203215570594 (0x927F1A5CE973DDF61762BF34440446A2)
Complete name : Earth Star Voyager Disk Two 1988.DVDRemux.VHSRip.Rus-Eng.mkv
Format : Matroska
Format version : Version 4
File size : 4.28 GiB
Duration : 1 h 27 min
Overall bit rate mode : Variable
Overall bit rate : 6 968 kb/s
Encoded date : UTC 2021-02-17 15:00:39
Writing application : mkvmerge v35.0.0 ('All The Love In The World') 64-bit
Writing library : libebml v1.3.9 + libmatroska v1.5.2
Video
ID : 1
Format : MPEG Video
Format version : Version 2
Format profile : Main@Main
Format settings : CustomMatrix / BVOP
Format settings, BVOP : Yes
Format settings, Matrix : Custom
Format settings, GOP : M=3, N=15
Format settings, picture struc : Frame
Codec ID : V_MPEG2
Codec ID/Info : MPEG 1 or 2 Video
Duration : 1 h 27 min
Bit rate mode : Variable
Bit rate : 6 517 kb/s
Maximum bit rate : 9 586 kb/s
Width : 704 pixels
Height : 480 pixels
Display aspect ratio : 4:3
Original display aspect ratio : 4:3
Frame rate mode : Constant
Frame rate : 29.970 (30000/1001) FPS
Standard : NTSC
Color space : YUV
Chroma subsampling : 4:2:0
Bit depth : 8 bits
Scan type : Interlaced
Scan order : Top Field First
Compression mode : Lossy
Bits/(Pixel*Frame) : 0.644
Time code of first frame : 00:00:00:00
Time code source : Group of pictures header
Stream size : 4.00 GiB (94%)
Title : Earth Star Voyager (1988)
Language : English
Default : Yes
Forced : No
Color primaries : BT.601 NTSC
Transfer characteristics : BT.601
Matrix coefficients : BT.601
Audio #1
ID : 2
Format : AC-3
Format/Info : Audio Coding 3
Commercial name : Dolby Digital
Codec ID : A_AC3
Duration : 1 h 27 min
Bit rate mode : Constant
Bit rate : 192 kb/s
Channel(s) : 2 channels
Channel layout : L R
Sampling rate : 48.0 kHz
Frame rate : 31.250 FPS (1536 SPF)
Compression mode : Lossy
Stream size : 121 MiB (3%)
Title : Профессиональный русский дубляж (канал РТР)
Language : Russian
Service kind : Complete Main
Default : Yes
Forced : No
Audio #2
ID : 3
Format : AC-3
Format/Info : Audio Coding 3
Commercial name : Dolby Digital
Codec ID : A_AC3
Duration : 1 h 27 min
Bit rate mode : Constant
Bit rate : 256 kb/s
Channel(s) : 2 channels
Channel layout : L R
Sampling rate : 48.0 kHz
Frame rate : 31.250 FPS (1536 SPF)
Compression mode : Lossy
Stream size : 161 MiB (4%)
Language : English
Service kind : Complete Main
Default : No
Forced : No
Text
ID : 4
Format : UTF-8
Codec ID : S_TEXT/UTF8
Codec ID/Info : UTF-8 Plain Text
Duration : 1 h 26 min
Bit rate : 82 b/s
Count of elements : 698
Stream size : 52.6 KiB (0%)
Title : Русские (4u2ges)
Language : Russian
Default : No
Forced : No
Menu
00:00:00.066 : en:Chapter 01
00:08:53.099 : en:Chapter 02
00:13:30.376 : en:Chapter 03
00:20:00.766 : en:Chapter 04
00:26:58.683 : en:Chapter 05
00:33:48.092 : en:Chapter 06
00:40:59.023 : en:Chapter 07
00:44:13.717 : en:Chapter 08
00:47:26.410 : en:Chapter 09
00:54:07.310 : en:Chapter 10
01:01:01.724 : en:Chapter 11
01:08:36.178 : en:Chapter 12
01:14:49.051 : en:Chapter 13
01:21:01.423 : en:Chapter 14
01:27:08.790 : en:Chapter 15
01:27:14.796 : en:Chapter 16

Скриншот c названием фильма

Скриншоты

1988 Звёздный странник (Earth Star Voyager) DVDRemux.torrent
Torrent: Registered [ 2021-02-18 17:26 ]

Download .torrent

Download

19 KB

Status: checked
Completed: 2 times
Size: 7.56 GB
 


Last edited by Darth_47 on 2021-02-18 17:26; edited 2 times in total
[Profile] [PM]

Darth_47 ®

Gender: Male

Longevity: 2 years 2 months

Posts: 883

Post 07-Feb-2021 20:30 (after 1 year 6 months)

[Quote]

Небольшая история в картинках о том, как шестилетняя раздача на Синемагеддоне потешила моё самолюбие.




[Profile] [PM]

Darth_47 ®

Gender: Male

Longevity: 2 years 2 months

Posts: 883

Post 18-Feb-2021 17:26 (after 10 days)

[Quote]

В торрент добавлены русские субтитры.
[Profile] [PM]
Display posts:    
Reply to topic

Current time is: 29-Jul 11:25

All times are UTC + 3



You cannot post new topics in this forum
You cannot reply to topics in this forum
You cannot edit your posts in this forum
You cannot delete your posts in this forum
You cannot vote in polls in this forum
You cannot attach files in this forum
You can download files in this forum