Бамбуковая летающая тарелка / The Bamboo Saucer (Френк Телфорд) [1968, США, фантастика, DVDRip] (АО : Трамвай-фильм (2019 г))

Reply to topic
DL-List and Torrent activity
Size:  1.64 GB   |    Registered:  2 months 21 day   |    Completed:  5 times

Seeder not seen: 18 hours

 
   
 
 
 
Author Message

Трамвай-фильм ®

Gender: Male

Longevity: 5 years 1 month

Posts: 1539

Location: Россия

Post 29-Jun-2019 19:19

[Quote]

Бамбуковая летающая тарелка / The Bamboo Saucer
Страна: США
Жанр: фантастика
Год выпуска: 1968
Продолжительность: 01:42:58
Перевод: Авторский (одноголосый) Трамвай-фильм (2019 г)
Режиссер: Френк Телфорд
В ролях: Дэн Дюреа, Джон Эриксон, Лоис Нетлтон, Боб Гастингс, Винсент Бек, Бернард Фокс
Описание: Пилот-испытатель Фред Норвуд сталкивается в небе с неким летающим объектом, похожим на блюдце из сияющего металла, однако на Земле ему никто не верит. В надежде поймать НЛО и доказать всю правоту, он обращается к брату жены, Джо, который имеет определенное влияние в авиационных кругах, но идея "поймать тарелку" оборачивается таким водоворотом событий, что Фред и не мог себе представить.
Доп. информация: Версия 2019 года, широкий формат DVD, обновленный перевод с исправлением мелких неточностей
Качество видео: DVDRip
Формат видео: AVI
Видео: 1280x640 (2.00:1), 30 fps, XviD build 50 ~2128 kbps avg, 0.09 bit/pixel
Аудио: 44.100 kHz, MPEG Layer 3, 2 ch, ~128.00 kbps avg
Формат субтитров: hardsub (неотключаемые, русская речь и надписи)

MediaInfo

Format : AVI
Format/Info : Audio Video Interleave
Format profile : OpenDML
File size : 1.64 GiB
Duration : 1 h 42 min
Overall bit rate : 2 274 kb/s
Video
ID : 0
Format : MPEG-4 Visual
Format profile : Simple@L3
Format settings, BVOP : No
Format settings, QPel : No
Format settings, GMC : No warppoints
Format settings, Matrix : Default (H.263)
Codec ID : XVID
Codec ID/Hint : XviD
Duration : 1 h 42 min
Bit rate : 2 128 kb/s
Width : 1 280 pixels
Height : 640 pixels
Display aspect ratio : 2.000
Frame rate : 30.000 FPS
Color space : YUV
Chroma subsampling : 4:2:0
Bit depth : 8 bits
Scan type : Progressive
Compression mode : Lossy
Bits/(Pixel*Frame) : 0.087
Stream size : 1.53 GiB (94%)
Writing library : XviD 1.2.1 (UTC 2008-12-04)
Audio
ID : 1
Format : MPEG Audio
Format version : Version 1
Format profile : Layer 3
Format settings : Joint stereo / MS Stereo
Codec ID : 55
Codec ID/Hint : MP3
Duration : 1 h 42 min
Bit rate mode : Constant
Bit rate : 128 kb/s
Channel(s) : 2 channels
Sampling rate : 44.1 kHz
Compression mode : Lossy
Stream size : 94.3 MiB (6%)
Alignment : Aligned on interleaves
Interleave, duration : 26 ms (0.78 video frame)
Writing library : LAME3.98

Скриншоты




The.Bamboo.Saucer.1968.avi.torrent
Torrent: Registered [ 2019-06-29 19:19 ]

Download .torrent

Download

17 KB

Status: checked
Completed: 5 times
Size: 1.64 GB
 
[Profile] [PM]

Darth_47

Gender: Male

Longevity: 4 months 14 days

Posts: 152

Post 29-Jun-2019 19:51 (after 32 minutes)

[Quote]

Трамвай-фильм
По скринам низкобюджетничек такой) Как фильм, стоит смотреть?
[Profile] [PM]

Трамвай-фильм ®

Gender: Male

Longevity: 5 years 1 month

Posts: 1539

Location: Россия

Post 29-Jun-2019 20:30 (after 38 minutes)

[Quote]

22247Трамвай-фильм
По скринам низкобюджетничек такой) Как фильм, стоит смотреть?
для своего времени нормальный, сюжетная линия меняется несколько раз не давая скучать
[Profile] [PM]

Darth_47

Gender: Male

Longevity: 4 months 14 days

Posts: 152

Post 29-Jun-2019 20:47 (after 17 minutes)

[Quote]

22248
22247Трамвай-фильм
По скринам низкобюджетничек такой) Как фильм, стоит смотреть?
для своего времени нормальный, сюжетная линия меняется несколько раз не давая скучать
Убедил, скачаю, пожалуй)
[Profile] [PM]
Quick Reply

Name:

            
Heads necessary to send messages to enable JavaScript
Display posts:    
Reply to topic

Current time is: 21-Sep 01:34

All times are UTC + 3



You can post new topics in this forum
You can reply to topics in this forum
You cannot edit your posts in this forum
You cannot delete your posts in this forum
You cannot vote in polls in this forum
You cannot attach files in this forum
You can download files in this forum