Другой мир / Otherworld / Сезон 1: Серии: 8 из 8 (Томас Дж. Райт / Thomas J. Wright) [1985, фантастика, VHSRip] ЛО (Вячеслав Прошин) + Original + Sub (Rus)

Reply to topic
 
Author Message

Darth_47 ®

Gender: Male

Longevity: 4 months 12 days

Posts: 136

Post 24-Jun-2019 20:42

[Quote]

Другой мир / Otherworld- Год выпуска: 1985
Страна: США
Жанр: фантастика
Продолжительность: 8 x ~00:45:00
Перевод 1: Любительский одноголосый закадровый (Вячеслав Прошин для kosmoaelita.com)
Перевод 2: Субтитры (karlivanovich - на слух с английского)
Режиссёр: Томас Дж. Райт / Thomas J. Wright
В ролях: Сэм Грум, Гретчен Корбетт, Тони О’Делл, Джонна Ли, Джонатан Бэнкс, Крис Хеберт, Вейн Александр, Питер Бромилов, Джанет Грэхэм, Роджер ЛаРу
Описание: Один араб из Каира по имени Ахмед подрядился за 10 долларов сводить американскую семью на экскурсию в подземелья пирамиды. Там он потребовал ещё 10 долларов за то, что выведет их обратно. Отец семейства не согласился и горько пожалел об этом. "Каким-то таинственным способом, сквозь пространство и время вся семья оказалась в другой реальности. В другом мире."
Попали они в мир с названием Тил, разделённом на 77 провинциий, со столицей Имар.
-Доп. информация: Исходный материал из этой раздачи был подвергнут минимальной реставрации. Выправлено соотношение сторон, обрезаны черные полосы по краям картинки и большая часть шума пленки, а также устранен жуткий интерлейс.-Релиз
-

Список серий

1. Rules of Attraction - Правила развлечений
2. The Zone Troopers Build Men - Полиция зоны
3. Paradise Lost - Потерянный рай
4. Rock and Roll Suicide - Убийственный рок-н-ролл
5. Village of the Motorpigs - Деревня Мотосвиней
6. I Am Woman, Hear Me Roar - Я женщина, услышь мой крик!
7. Mansion of the Beast - Логово Зверя
8. Princess Metra - Принцесса Метра
Качество: VHSRip
Формат: MKV
Видео кодек: H.264
Видео: MPEG4 Video (H264) 640x480 29.97fps 1 969 kb/s
Аудио 1: Dolby AC3 48000Hz stereo 192kbps [A: Русский ЛО (Вячеслав Прошин для kosmoaelita.com)
Аудио 2: Dolby AC3 48000Hz stereo 192kbps [English]
Субтитры 1: UTF-8 [S: Русский (karlivanovich-kosmoaelita) srt - на слух с английского, ред. Вячеслав Прошин
Субтитры 2: UTF-8 [S: Русский (karlivanovich) srt - на слух с английского

MediaInfo

General
Unique ID : 231847624847123552611106993560633058705 (0xAE6C3A735D28383688E047B61675A591)
Complete name : Otherworld.s01e01.1985.VHSRip.Rus.Eng.kosmoaelita.com.mkv
Format : Matroska
Format version : Version 1
File size : 775 MiB
Duration : 45 min 6 s
Overall bit rate : 2 401 kb/s
Encoded date : UTC 2019-07-05 22:20:33
Writing application : mkvmerge v2.4.2 ('Oh My God') built on Jan 18 2009 17:30:28
Writing library : libebml v0.7.7 + libmatroska v0.8.1 / Lavf58.20.100
ENCODING_INFO : AVI > MKV
Video
ID : 1
Format : AVC
Format/Info : Advanced Video Codec
Format profile : High 4:2:2@L3
Format settings : CABAC / 4 Ref Frames
Format settings, CABAC : Yes
Format settings, Reference fra : 4 frames
Codec ID : V_MPEG4/ISO/AVC
Duration : 45 min 6 s
Bit rate : 1 969 kb/s
Nominal bit rate : 2 100 kb/s
Width : 640 pixels
Height : 480 pixels
Display aspect ratio : 4:3
Frame rate mode : Constant
Frame rate : 29.970 (30000/1001) FPS
Color space : YUV
Chroma subsampling : 4:2:2
Bit depth : 8 bits
Scan type : Progressive
Bits/(Pixel*Frame) : 0.214
Stream size : 635 MiB (82%)
Title : Otherworld 1985 (kosmoaelita.com)
Writing library : x264 core 157 r2969 d4099dd
Encoding settings : cabac=1 / ref=3 / deblock=1:-1:-1 / analyse=0x3:0x133 / me=dia / subme=1 / psy=1 / psy_rd=1.00:0.15 / mixed_ref=1 / me_range=8 / chroma_me=1 / trellis=1 / 8x8dct=1 / cqm=0 / deadzone=21,11 / fast_pskip=1 / chroma_qp_offset=-1 / threads=5 / lookahead_threads=1 / sliced_threads=0 / nr=0 / decimate=1 / interlaced=0 / bluray_compat=0 / constrained_intra=0 / bframes=3 / b_pyramid=2 / b_adapt=0 / b_bias=0 / direct=3 / weightb=1 / open_gop=0 / weightp=0 / keyint=300 / keyint_min=30 / scenecut=40 / intra_refresh=0 / rc_lookahead=40 / rc=cbr / mbtree=1 / bitrate=2100 / ratetol=1.0 / qcomp=0.60 / qpmin=0 / qpmax=69 / qpstep=4 / vbv_maxrate=2100 / vbv_bufsize=1500 / nal_hrd=none / filler=0 / ip_ratio=1.40 / aq=1:1.00
Language : English
Default : Yes
Forced : No
ENCODING_INFO : LAGARITH > X264 CBR 2100kbps BS
Audio #1
ID : 2
Format : AC-3
Format/Info : Audio Coding 3
Commercial name : Dolby Digital
Codec ID : A_AC3
Duration : 45 min 6 s
Bit rate mode : Constant
Bit rate : 192 kb/s
Channel(s) : 2 channels
Channel layout : L R
Sampling rate : 48.0 kHz
Frame rate : 31.250 FPS (1536 SPF)
Bit depth : 16 bits
Compression mode : Lossy
Stream size : 62.0 MiB (8%)
Title : Русский ЛО (Вячеслав Прошин для kosmoaelita.com)
Language : Russian
Service kind : Complete Main
Default : Yes
Forced : No
Audio #2
ID : 3
Format : AC-3
Format/Info : Audio Coding 3
Commercial name : Dolby Digital
Codec ID : A_AC3
Duration : 45 min 6 s
Bit rate mode : Constant
Bit rate : 192 kb/s
Channel(s) : 2 channels
Channel layout : L R
Sampling rate : 48.0 kHz
Frame rate : 31.250 FPS (1536 SPF)
Bit depth : 16 bits
Compression mode : Lossy
Stream size : 62.0 MiB (8%)
Language : English
Service kind : Complete Main
Default : No
Forced : No
ENCODING_INFO : PCM > AC3 CBR 192kbps
Text #1
ID : 4
Format : UTF-8
Codec ID : S_TEXT/UTF8
Codec ID/Info : UTF-8 Plain Text
Title : Русский (karlivanovich-kosmoaelita) - ред. Вячеслав Прошин
Language : Russian
Default : Yes
Forced : No
Text #2
ID : 5
Format : UTF-8
Codec ID : S_TEXT/UTF8
Codec ID/Info : UTF-8 Plain Text
Title : Русский (karlivanovich-kosmoaelita)
Language : Russian
Default : No
Forced : No
Menu
00:00:00.000 : :Chapter 1
00:06:24.050 : :Chapter 2
00:12:27.413 : :Chapter 3
00:18:32.778 : :Chapter 4
00:24:34.139 : :Chapter 5
00:30:31.496 : :Chapter 6
00:36:29.254 : :Chapter 7
00:42:19.203 : :Chapter 8

Скриншоты





Last edited by Darth_47 on 2019-08-16 20:13; edited 12 times in total
[Profile] [PM]

Darth_47 ®

Gender: Male

Longevity: 4 months 12 days

Posts: 136

Post 06-Jul-2019 16:18 (after 11 days)

[Quote]

Добавлена вторая серия. Просьба перекачать торрент-файл.-Добавлена третья серия.-Добавлена четвертая серия.-Добавлена пятая серия.-Добавлена шестая серия.-Добавлена седьмая серия.
[Profile] [PM]

Darth_47 ®

Gender: Male

Longevity: 4 months 12 days

Posts: 136

Post 16-Aug-2019 20:14 (after 1 month 10 days)

[Quote]

Добавлена восьмая серия, сериал полностью озвучен!
[Profile] [PM]
Display posts:    
Reply to topic

Current time is: 18-Sep 16:43

All times are UTC + 3



You cannot post new topics in this forum
You cannot reply to topics in this forum
You cannot edit your posts in this forum
You cannot delete your posts in this forum
You cannot vote in polls in this forum
You cannot attach files in this forum
You cannot download files in this forum