Земля гигантов (сериал) / Land of the Giants / Сезон 1: Серии: 3 из 26 (Irwin Allen, Гарри Харрис, Соби Мартин, Нэйтан Юран) [1968-1970, США, фантастика] (ЛО: den904, Original) ¶

Reply to topic
 
Author Message

Darth_47 ®

Gender: Male

Longevity: 2 months 12 days

Posts: 18

Post 21-Jun-2019 19:38

[Quote]

Земля гигантов (сериал) / Land of the Giants
Страна: США
Жанр: фантастика
Год выпуска: 1968-1970
Продолжительность: 26 х ~ 00:52:00
Перевод 1: Любительский одноголосый закадровый (den904 для kosmoaelita.com)
Перевод 2: Субтитры (koto2008 (Андрей Самсонов) - с англ. субтитров)
Режиссер: Irwin Allen, Гарри Харрис, Соби Мартин, Нэйтан Юран
В ролях: Gary Conway ... Capt. Steve Burton (51 episodes, 1968-1970)
Don Matheson ... Mark Wilson (51 episodes, 1968-1970)
Stefan Arngrim ... Barry Lockridge (51 episodes, 1968-1970)
Don Marshall ... Dan Erickson (51 episodes, 1968-1970)
Deanna Lund ... Valerie Scott (51 episodes, 1968-1970)
Heather Young ... Betty Hamilton (51 episodes, 1968-1970)
Kurt Kasznar ... Alexander B. Fitzhugh (51 episodes, 1968-1970)
Описание: Красочный сериал от знаменитого Ирвина Аллена ("Затеряные в Космосе" 1965-68 гг.). Коммерческий космический корабль "Сприндрифт" (Морская Пена) во время суборбитального полета из Нью-Йорка в Лондон пропадает с экранов радаров, пройдя через странное облако на орбите Земли. Корабль приземляется на альтернативной планете Земля, где жители примерно в тридцать раз больше размером, чем пассажиры корабля...-Релиз
-

Список серий

1 The Crash - Крушение
2 Ghost Town - Город-призрак
3 Framed - Подставленный

4 Underground - Подполье
5 Terror-Go-Round - Бродячая угроза
6 The Flight Plan - План полета
7 Manhunt - Преследование беглеца
8 The Trap - Западня
9 The Creed - Древняя клятва
10 Double-Cross - Предательство
11 The Weird World - Странный мир
12 The Golden Cage - Золотая клетка
13 The Lost Ones - Потерянные
14 Brainwash - Подконтрольные
15 The Bounty Hunter - Охотники за головами
16 On a Clear Night You Can See Earth - В ясную ночь можно увидеть Землю
17 Deadly Lodestone - Смертельно опасный магнит
18 Night of Thrombeldinbar - Ночь Тромбельдинбара
19 Seven Little Indians - Семь маленьких индейцев
20 Target: Earth - Цель: Земля
21 Genius at Work - Истинный гений
22 Return of Inidu - Возвращение Иниду
23 Rescue - Спасение
24 Sabotage - Диверсия
25 Shell Game - Игра в раковины
26 The Chase - Преследование
Качество: DVDRip
Формат: MKV
Видео кодек: H.264
Видео: MPEG4 Video (H264) 720x540 23.976fps 1512 kb/s
Аудио 1: Dolby AC3 48000Hz stereo 192kbps [A: Русский ЛО (den904 для kosmoaelita.com)
Аудио 2: Dolby AC3 48000Hz stereo 192kbps [English]
Субтитры 1: UTF-8 [S: Русский (koto2008 (Андрей Самсонов) - с англ. субтитров
Субтитры 2: UTF-8 [S: English]

MediaInfo

General
Unique ID : 186381483171219627604955999528046623957 (0x8C37C4987E7F4547BDE9F8711778FCD5)
Complete name : Land.of.the.Giants.s01e01.The.Crash.1968.DVDRip.Rus.Eng.kosmoaelita.com.mkv
Format : Matroska
Format version : Version 1
File size : 700 MiB
Duration : 51 min 29 s
Overall bit rate : 1 901 kb/s
Movie name : Land of the Giants s01e01 The Crash 1968 / rip from NTSC DVD9 by sasha20072007 (kosmoaelita) (2014-05-26), crf=18.77
Encoded date : UTC 2019-06-21 16:00:59
Writing application : mkvmerge v2.4.2 ('Oh My God') built on Jan 18 2009 17:30:28
Writing library : libebml v0.7.7 + libmatroska v0.8.1
Attachments : Poster Land_of_the_Giants.jpg / 1.mkv.encoding.log
Video
ID : 1
Format : AVC
Format/Info : Advanced Video Codec
Format profile : High@L4.1
Format settings : CABAC / 10 Ref Frames
Format settings, CABAC : Yes
Format settings, Reference fra : 10 frames
Codec ID : V_MPEG4/ISO/AVC
Duration : 51 min 29 s
Bit rate : 1 512 kb/s
Width : 720 pixels
Height : 540 pixels
Display aspect ratio : 4:3
Frame rate mode : Constant
Frame rate : 23.976 (24000/1001) FPS
Color space : YUV
Chroma subsampling : 4:2:0
Bit depth : 8 bits
Scan type : Progressive
Bits/(Pixel*Frame) : 0.162
Stream size : 545 MiB (78%)
Title : Land of the Giants (kosmoaelita.com)
Writing library : x264 core 130 r2273 b3065e6
Encoding settings : cabac=1 / ref=10 / deblock=1:-1:-1 / analyse=0x3:0x133 / me=umh / subme=11 / psy=1 / psy_rd=0.99:0.14 / mixed_ref=1 / me_range=24 / chroma_me=1 / trellis=2 / 8x8dct=1 / cqm=0 / deadzone=21,11 / fast_pskip=1 / chroma_qp_offset=-3 / threads=6 / lookahead_threads=1 / sliced_threads=0 / nr=0 / decimate=1 / interlaced=0 / bluray_compat=0 / constrained_intra=0 / bframes=10 / b_pyramid=2 / b_adapt=2 / b_bias=0 / direct=3 / weightb=1 / open_gop=0 / weightp=2 / keyint=240 / keyint_min=23 / scenecut=40 / intra_refresh=0 / rc_lookahead=60 / rc=2pass / mbtree=1 / bitrate=1512 / ratetol=1.0 / qcomp=0.63 / qpmin=0 / qpmax=69 / qpstep=4 / cplxblur=20.0 / qblur=0.5 / ip_ratio=1.25 / aq=1:0.90
Language : English
Default : Yes
Forced : No
Color range : Limited
Color primaries : BT.601 NTSC
Transfer characteristics : BT.601
Matrix coefficients : BT.601
Audio #1
ID : 2
Format : AC-3
Format/Info : Audio Coding 3
Commercial name : Dolby Digital
Codec ID : A_AC3
Duration : 51 min 29 s
Bit rate mode : Constant
Bit rate : 192 kb/s
Channel(s) : 2 channels
Channel layout : L R
Sampling rate : 48.0 kHz
Frame rate : 31.250 FPS (1536 SPF)
Bit depth : 16 bits
Compression mode : Lossy
Stream size : 70.7 MiB (10%)
Title : Русский ЛО (den904 для kosmoaelita.com)
Language : Russian
Service kind : Complete Main
Default : Yes
Forced : No
Audio #2
ID : 3
Format : AC-3
Format/Info : Audio Coding 3
Commercial name : Dolby Digital
Codec ID : A_AC3
Duration : 51 min 29 s
Bit rate mode : Constant
Bit rate : 192 kb/s
Channel(s) : 2 channels
Channel layout : L R
Sampling rate : 48.0 kHz
Frame rate : 31.250 FPS (1536 SPF)
Bit depth : 16 bits
Compression mode : Lossy
Stream size : 70.7 MiB (10%)
Language : English
Service kind : Complete Main
Default : No
Forced : No
Text #1
ID : 4
Format : UTF-8
Codec ID : S_TEXT/UTF8
Codec ID/Info : UTF-8 Plain Text
Title : Русский (kosmoaelita, koto 2008) srt - перевод с англ. субтитров
Language : Russian
Default : No
Forced : No
Text #2
ID : 5
Format : UTF-8
Codec ID : S_TEXT/UTF8
Codec ID/Info : UTF-8 Plain Text
Language : English
Default : No
Forced : No
Menu
00:01:04.231 : en:00:01:04.231
00:06:16.743 : en:00:06:16.743
00:08:06.152 : en:00:08:06.152
00:09:45.085 : en:00:09:45.085
00:12:03.723 : en:00:12:03.723
00:12:50.770 : en:00:12:50.770
00:13:00.613 : en:00:13:00.613
00:15:07.073 : en:00:15:07.073
00:19:01.807 : en:00:19:01.807
00:20:37.903 : en:00:20:37.903
00:24:34.840 : en:00:24:34.840
00:26:17.776 : en:00:26:17.776
00:31:27.919 : en:00:31:27.919
00:34:17.555 : en:00:34:17.555
00:37:21.106 : en:00:37:21.106
00:42:37.722 : en:00:42:37.722
00:44:15.053 : en:00:44:15.053
00:50:54.885 : en:00:50:54.885
00:51:29.886 : en:00:51:29.886
00:51:30.387 : en:00:51:30.387

Скриншоты






Last edited by Darth_47 on 2019-07-05 16:06; edited 4 times in total
[Profile] [PM]

Darth_47 ®

Gender: Male

Longevity: 2 months 12 days

Posts: 18

Post 21-Jun-2019 19:41 (after 3 minutes)

[Quote]

Первая серия в озвучке den904. Серии постепенно будут заказываться и выкладываться. Был бы очень рад, если бы кто-то присоединился к финансированию, одному все серии будет вытянуть тяжеловато. Приятного просмотра!
[Profile] [PM]

Darth_47 ®

Gender: Male

Longevity: 2 months 12 days

Posts: 18

Post 27-Jun-2019 17:25 (after 5 days)

[Quote]

Добавлена вторая серия, просьба перекачать торрент. Также была заменена первая серия, в ней исправлена одна ошибка в русской звуковой дорожке.
[Profile] [PM]

Darth_47 ®

Gender: Male

Longevity: 2 months 12 days

Posts: 18

Post 05-Jul-2019 16:04 (after 7 days)

[Quote]

Добавлена третья серия, просьба перекачать торрент-файл.
[Profile] [PM]
Display posts:    
Reply to topic

Current time is: 19-Jul 00:51

All times are UTC + 3



You cannot post new topics in this forum
You cannot reply to topics in this forum
You cannot edit your posts in this forum
You cannot delete your posts in this forum
You cannot vote in polls in this forum
You cannot attach files in this forum
You cannot download files in this forum