Обезьяний дядюшка / Обезьяний дядя / The Monkey's Uncle (Роберт Стивенсон / Robert Stevenson) [1965, США, Фантастика, комедия, семейный, WEBDL-720p] ДБ (СВ-Дубль по заказу РТР)

Reply to topic
 
Author Message

Guest

Gender: Unknown

Longevity: 50 years

Post 03-Jun-2019 00:33

[Quote]

Обезьяний дядюшка / Обезьяний дядя / The Monkey's Uncle
Страна: США, Walt Disney Productions
Жанр: Фантастика, комедия, семейный
Год выпуска: 1965
Продолжительность: 01:31:05
Перевод: Профессиональный (дублированный) СВ-Дубль по заказу РТР
Режиссер: Роберт Стивенсон / Robert Stevenson
В ролях:
Tommy Kirk ... Merlin Jones
Annette Funicello ... Jennifer
Leon Ames ... Judge Holmsby
Arthur O'Connell ... Darius Green III
Frank Faylen ... Mr. Dearborne
Leon Tyler ... Leon
Norman Grabowski ... Norman
Cheryl Miller ... Lisa
Connie Gilchrist ... Mrs. Gossett
Alan Hewitt ... Professor Shattuck
Gage Clarke ... College President
Mark Goddard ... Haywood
Harry Holcombe ... Regent
Alexander Lockwood ... Regent
Harry Antrim ... Regent
Описание: Колледжский вундеркинд Мерлин Джонс изобретает метод продвинутого обучения шимпанзе, затем создаёт летательный аппарат собственного дизайна, и в конце концов устраивает в студенческом городке настоящий бедлам.
Качество видео: WEBDL-720p
Формат: MKV
Видео: x264, 4395 кбит/с, 1280x720, 23.976 к/с
Аудио 1: Русский ДБ (AC3, 2 ch, 192 Кбит/с)
Аудио 2: Английский (AC3, 2 ch, 224 Кбит/с)
Субтитры : Английские
Работа над релизом:
Видеоряд найден на rarbg2018.org
Синхронизация русской дорожки - kosmoaelita
За исходную дорожку спасибо - KinoprojectionisT



Пример русского перевода

Дополнительно

слоган «More fun than a barrel of teenagers!»
Also Known As (AKA)
(original title) The Monkey's Uncle
Brazil O Maravilhoso Homem que Voou
Finland 10 miljoonan dollarin shekki
France Un neveu studieux
Mexico El tío del mono
Sweden Vilken chans för en schimpans!
Turkey (Turkish title) Maymunun Amcasi
West Germany Eine Uni voller Affen
Формат копии: 35 mm
Формат съёмок: 35 mm
Изображение: цветное
Язык: английский

Отзывы

MediaInfo

Общее
Уникальный идентификатор : 225256388418106482307853038715268768433 (0xA976CD6796D40C748C278E20836C22B1)
Полное имя : N:\BD-DISC\The.Monkeys.Uncle.1965.720p.WEBRip.DDP2.0.x264-NTb\The Monkeys Uncle 1965.x264.WEB-DL.720p.Rus.kosmoaelita.mkv
Формат : Matroska
Версия формата : Version 4
Размер файла : 3,12 Гбайт
Продолжительность : 1 ч. 31 м.
Режим общего битрейта : Переменный
Общий поток : 4908 Кбит/сек
Название фильма : Обезьяний дядюшка / Обезьяний дядя / The Monkey's Uncle / 1965 / kosmoaelita
Дата кодирования : UTC 2019-06-02 21:21:01
Программа кодирования : mkvmerge v6.6.0 ('The Edge Of The In Between') built on Dec 1 2013 17:55:00
Библиотека кодирования : libebml v1.3.0 + libmatroska v1.4.1
Attachments : POSTER.jpg
Видео
Идентификатор : 1
Формат : AVC
Формат/Информация : Advanced Video Codec
Профиль формата : High@L3.1
Настройки формата : CABAC / 5 Ref Frames
Параметр CABAC формата : Да
Параметр RefFrames формата : 5 кадров
Идентификатор кодека : V_MPEG4/ISO/AVC
Продолжительность : 1 ч. 31 м.
Вид битрейта : Переменный
Битрейт : 4395 Кбит/сек
Максимальный битрейт : 4500 Кбит/сек
Ширина : 1280 пикселей
Высота : 720 пикселей
Соотношение сторон : 16:9
Режим частоты кадров : Постоянный
Частота кадров : 23,976 (24000/1001) кадра/сек
Цветовое пространство : YUV
Субдискретизация насыщенности : 4:2:0
Битовая глубина : 8 бит
Тип развёртки : Прогрессивная
Бит/(Пиксели*Кадры) : 0.199
Размер потока : 2,80 Гбайт (90%)
Заголовок : http://kosmoaelita.com/viewtopic.php?t=2729
Библиотека кодирования : x264 core 148 r2623 d5b2374
Настройки программы : cabac=1 / ref=5 / deblock=1:-1:-1 / analyse=0x3:0x133 / me=umh / subme=9 / psy=1 / psy_rd=1.00:0.15 / mixed_ref=1 / me_range=24 / chroma_me=1 / trellis=2 / 8x8dct=1 / cqm=0 / deadzone=21,11 / fast_pskip=1 / chroma_qp_offset=-3 / threads=22 / lookahead_threads=3 / sliced_threads=0 / nr=150 / decimate=1 / interlaced=0 / bluray_compat=0 / constrained_intra=0 / bframes=8 / b_pyramid=2 / b_adapt=2 / b_bias=0 / direct=3 / weightb=1 / open_gop=0 / weightp=2 / keyint=120 / keyint_min=61 / scenecut=0 / intra_refresh=0 / rc_lookahead=120 / rc=crf / mbtree=1 / crf=18.0 / qcomp=0.60 / qpmin=0 / qpmax=69 / qpstep=4 / vbv_maxrate=4500 / vbv_bufsize=17500 / crf_max=0.0 / nal_hrd=vbr / filler=0 / ip_ratio=1.40 / aq=3:1.00
Default : Да
Forced : Нет
Цветовой диапазон : Limited
Основные цвета : BT.709
Характеристики трансфера : BT.709
Коэффициенты матрицы : BT.709
Аудио #1
Идентификатор : 2
Формат : AC-3
Формат/Информация : Audio Coding 3
Коммерческое название : Dolby Digital
Идентификатор кодека : A_AC3
Продолжительность : 1 ч. 31 м.
Вид битрейта : Постоянный
Битрейт : 192 Кбит/сек
Каналы : 2 канала
Channel layout : L R
Частота : 48,0 КГц
Частота кадров : 31,250 кадров/сек (1536 SPF)
Битовая глубина : 16 бит
Метод сжатия : С потерями
Размер потока : 125 Мбайт (4%)
Заголовок : Русский ДБ (СВ-Дубль по заказу РТР) с VHS
Язык : Russian
ServiceKind/String : Complete Main
Default : Да
Forced : Нет
Аудио #2
Идентификатор : 3
Формат : E-AC-3
Формат/Информация : Enhanced AC-3
Коммерческое название : Dolby Digital Plus
Идентификатор кодека : A_EAC3
Продолжительность : 1 ч. 31 м.
Вид битрейта : Постоянный
Битрейт : 224 Кбит/сек
Каналы : 2 канала
Channel layout : L R
Частота : 48,0 КГц
Частота кадров : 31,250 кадров/сек (1536 SPF)
Метод сжатия : С потерями
Размер потока : 146 Мбайт (5%)
Язык : English
ServiceKind/String : Complete Main
Default : Нет
Forced : Нет
Текст
Идентификатор : 4
Формат : UTF-8
Идентификатор кодека : S_TEXT/UTF8
Идентификатор кодека/Информация : UTF-8 Plain Text
Язык : English
Default : Да
Forced : Нет

Скриншоты
















Скринлист

Файл дополнительно залит на ОБЛАКО


Last edited by on 2019-06-03 00:49; edited 1 time in total
[Profile] [PM]

Guest

Gender: Unknown

Longevity: 50 years

Post 03-Jun-2019 00:39 (after 6 minutes)

[Quote]

VHSRip vs. WEBRip

[Profile] [PM]
Display posts:    
Reply to topic

Current time is: 30-Nov 01:00

All times are UTC + 3



You cannot post new topics in this forum
You cannot reply to topics in this forum
You cannot edit your posts in this forum
You cannot delete your posts in this forum
You cannot vote in polls in this forum
You cannot attach files in this forum
You cannot download files in this forum