Супер Титан 15 / Невероятные горизонты / Сокол 7 / Super Titan 15 / Wonder of Frontier / Falcon 7 (Рой Томас / Сёнг-Чёл Пак) [1983, Южная Корея / Гонконг, фантастика, меха, VHSRip] [гонконгская версия] АО (Трамвай фильм)

Reply to topic
DL-List and Torrent activity
Size:  469 MB   |    Registered:  2 months 17 days   |    Completed:  3 times

Seeders:

Username ULR UL DL UL speed DL speed
pompilius 0 0- 0- 0- 0-
shows data only for the current session
 
   
 
 
 
Author Message

Трамвай-фильм ®

Gender: Male

Longevity: 5 years

Posts: 1493

Location: Россия

Post 02-Jun-2019 15:27

[Quote]

Супер Титан 15 / Невероятные горизонты / Сокол 7 / Super Titan 15 / Wonder of Frontier / Falcon 7 (гонконгская версия)
Страна: Южная Корея / Гонконг
Жанр: фантастика, меха
Год выпуска: 1983
Продолжительность: 01:03:49
Перевод: Авторский (одноголосый) Трамвай фильм
Режиссер: Рой Томас / Сёнг-Чёл Пак
Описание: Маленький мальчик Тедди едет с тётей на галактическом экспрессе 777, сквозь вселенские дали полные опасностей: космических пиратов, вихревых воронок и агентов межзвездных коммунистов.
Доп. информация: В этом фильме столько плагиата на хиты японской анимации, сколько и названий. Я насчитал целых три. Фильм был выпущен для англоязычных рынков гонконгским продюсером Джозефом Лаем, известным своими работами в стиле ниндзя-боевик.
Качество видео: VHSRip
Формат видео: MKV
Видео: MPEG-4, 640x480, 29.97fps, 768 kb/s
Аудио 1: AAC, 44100Hz, stereo, 128 kb/s (русский)
Аудио 2: AAC, 44100Hz, stereo, 128 kb/s (английский)
Формат субтитров: softsub (SRT)
Доп. информация о субтитрах: комментарии автора
Работа над релизом:


[kp][/kp]

С русским переводом

MediaInfo

Complete name : Wonder of Frontier (Falcon 7).mkv
Format : Matroska
Format version : Version 4 / Version 2
File size : 469 MiB
Duration : 1 h 4 min
Overall bit rate : 1 024 kb/s
Encoded date : UTC 2019-06-02 12:09:44
Writing application : mkvmerge v7.1.0 ('Good Love') 32bit built on Jul 27 2014 12:59:18
Writing library : libebml v1.3.0 + libmatroska v1.4.1
Video
ID : 1
Format : MPEG-4 Visual
Format profile : Simple@L1
Format settings, BVOP : No
Format settings, QPel : No
Format settings, GMC : No warppoints
Format settings, Matrix : Default (H.263)
Codec ID : V_MPEG4/ISO/ASP
Codec ID/Info : Advanced Simple Profile
Duration : 1 h 3 min
Bit rate : 768 kb/s
Width : 640 pixels
Height : 480 pixels
Display aspect ratio : 4:3
Frame rate mode : Constant
Frame rate : 29.970 (30000/1001) FPS
Color space : YUV
Chroma subsampling : 4:2:0
Bit depth : 8 bits
Scan type : Progressive
Compression mode : Lossy
Bits/(Pixel*Frame) : 0.083
Stream size : 350 MiB (75%)
Default : Yes
Forced : No
Audio #1
ID : 2
Format : AAC
Format/Info : Advanced Audio Codec
Format profile : LC
Codec ID : A_AAC-2
Duration : 1 h 4 min
Bit rate : 128 kb/s
Channel(s) : 2 channels
Channel positions : Front: L R
Sampling rate : 44.1 kHz
Frame rate : 43.066 FPS (1024 SPF)
Compression mode : Lossy
Delay relative to video : 5 ms
Stream size : 58.6 MiB (12%)
Title : АО Трамвай-фильм
Language : Russian
Default : Yes
Forced : No
Audio #2
ID : 3
Format : AAC
Format/Info : Advanced Audio Codec
Format profile : LC
Codec ID : A_AAC-2
Duration : 1 h 3 min
Bit rate : 128 kb/s
Channel(s) : 2 channels
Channel positions : Front: L R
Sampling rate : 44.1 kHz
Frame rate : 43.066 FPS (1024 SPF)
Compression mode : Lossy
Delay relative to video : 5 ms
Stream size : 58.4 MiB (12%)
Title : Оригинал
Language : English
Default : No
Forced : No
Text
ID : 4
Format : UTF-8
Codec ID : S_TEXT/UTF8
Codec ID/Info : UTF-8 Plain Text
Duration : 1 h 3 min
Bit rate : 8 b/s
Count of elements : 30
Stream size : 4.07 KiB (0%)
Title : комментарии
Language : Russian
Default : Yes
Forced : No

Скриншоты




Скринлист

Файл дополнительно залит на ОБЛАКО
Wonder of Frontier (Falcon 7).mkv.torrent
Torrent: Registered [ 2019-06-02 15:27 ]

Download .torrent

Download

19 KB

Status: checked
Completed: 3 times
Size: 469 MB
 
[Profile] [PM]
Quick Reply

Name:

            
Heads necessary to send messages to enable JavaScript
Display posts:    
Reply to topic

Current time is: 20-Aug 08:11

All times are UTC + 3



You can post new topics in this forum
You can reply to topics in this forum
You cannot edit your posts in this forum
You cannot delete your posts in this forum
You cannot vote in polls in this forum
You cannot attach files in this forum
You can download files in this forum