Франкенштейн - 1970 / Frankenstein 1970 (Говард Кох / Howard W. Koch) [1958, США, Говард В. Кох / Howard W. Koch, BDRip-1080p] ПД (5-й канал СПБ)

Reply to topic
 
Author Message

kosmoaelita2 ®

Gender: Male

Longevity: 6 years 11 months

Posts: 743

Post 21-May-2019 02:31

[Quote]

Франкенштейн - 1970 / Frankenstein 1970
Страна: США, Aubrey Schenck Productions Inc.
Жанр: ужасы, фантастика
Год выпуска: 1958
Продолжительность: 01:22:55
Перевод: Профессиональный (двухголосый) 5-й канал СПБ
Режиссер: Говард Кох / Howard W. Koch
В ролях:
Boris Karloff ... Baron Victor von Frankenstein
Tom Duggan ... Mike Shaw
Jana Lund ... Carolyn Hayes
Don 'Red' Barry ... Douglas Row (as Donald Barry)
Charlotte Austin ... Judy Stevens
Irwin Berke ... Inspector Raab
Rudolph Anders ... Wilhelm Gottfried
Norbert Schiller ... Shuter
John Dennis ... Morgan Haley
Mike Lane ... Hans Himmler / The Monster
Описание: Барон Виктор фон Франкенштейн – потомок того самого Франкенштейна, который оживлял мёртвую плоть. Ныне он живёт в замке своего знаменитого предка и вынужден сводить концы с концами, в результате чего ему приходится сдать свой замок в аренду группе киношников, снимающих ужастик по мотивам деяний Франкенштейна. ...На вырученные деньги он заказывает атомный реактор (!) и трупы из морга, дабы продолжать дела своего именитого предка. Впрочем, вскоре он понимает, что ему необходимы очень свежие тела, которые вполне можно раздобыть среди участников уже явно намозолившей глаза съёмочной группы. Киношники один за другим начинают исчезать в подвале зловещего дома, и из них собирается новое творение Франкенштейна – первый после долгого перерыва монстр… Смехотворный по своему сюжету, но довольно приятный и забавный ужастик с Борисом Карлоффом в главной роли. Всё по лекалам старых чёрно-белых лент: визжащие красавицы, нелепое чудовище в бинтах, скорее смахивающее на мумию, нежели на создание Франкенштейна, и неторопливый темп повествования.
Качество видео: BDRip-1080p
Формат: MKV
Видео: x264, 9597 кбит/с, 1920x800, 23.976 к/с
Аудио 1: Русский (AC3, 2 ch, 192 Кбит/с)
Аудио 2: Английский (AC3, 2 ch, 384 Кбит/с)
Аудио 3: Английский Comment (AC3, 2 ch, 192 Кбит/с)
Субтитры : Французские, английские
Работа над релизом:
Видеоряд найден на rarbg2018.org
Синхронизация русской дорожки - kosmoaelita



Пример русского перевода
[vkontakte][/vkontakte]

Дополнительно

слоган «The One...The Only KING OF MONSTERS as the new demon of the atomic age!»
бюджет $110 000
Also Known As (AKA)
(original title) Frankenstein 1970
Belgium (Flemish title) Frankenstein 1970
Belgium (French title) Frankenstein 1970
Brazil O Castelo de Frankenstein
France Frankenstein contre l'homme invisible
Greece (transliterated ISO-LATIN-1 title) Frankenstein 1970
Soviet Union (Russian title) Франкенштейн - 1970
Spain El castillo de Frankenstein
Sweden Frankenstein hämnas
Turkey (Turkish title) Canavar Yaratan Doktor
USA (working title) Frankenstein 1960
USA (working title) Frankenstein 1975
Uruguay (original subtitled version) El castillo de Frankenstein
West Germany Die Hexenküche des Dr.Rambow

Знаете ли вы, что...

Отзывы

Рецензия

MediaInfo

Общее
Уникальный идентификатор : 207436591099550996838607593343981575563 (0x9C0ED5907DF685AB920089B0D1C1DD8B)
Полное имя : N:\BD-DISC\Frankenstein.1970.1958.1080p.BluRay.x264-HANDJOB\Frankenstein 1970 1958.x264.BDRip.1080p.Rus.kosmoaelita.mkv
Формат : Matroska
Версия формата : Version 4
Размер файла : 6,12 Гбайт
Продолжительность : 1 ч. 22 м.
Общий поток : 10,6 Мбит/сек
Название фильма : Frankenstein 1970 / 1958 / kosmoaelita
Дата кодирования : UTC 2019-05-21 05:33:41
Программа кодирования : mkvmerge v6.6.0 ('The Edge Of The In Between') built on Dec 1 2013 17:55:00
Библиотека кодирования : libebml v1.3.0 + libmatroska v1.4.1
Attachments : poster.jpg
Видео
Идентификатор : 1
Формат : AVC
Формат/Информация : Advanced Video Codec
Профиль формата : High@L4.1
Настройки формата : CABAC / 5 Ref Frames
Параметр CABAC формата : Да
Параметр RefFrames формата : 5 кадров
Идентификатор кодека : V_MPEG4/ISO/AVC
Продолжительность : 1 ч. 22 м.
Битрейт : 9597 Кбит/сек
Ширина : 1920 пикселей
Высота : 800 пикселей
Соотношение сторон : 2,40:1
Режим частоты кадров : Постоянный
Частота кадров : 23,976 (24000/1001) кадра/сек
Цветовое пространство : YUV
Субдискретизация насыщенности : 4:2:0
Битовая глубина : 8 бит
Тип развёртки : Прогрессивная
Бит/(Пиксели*Кадры) : 0.261
Размер потока : 5,56 Гбайт (91%)
Заголовок : http://kosmoaelita.com/viewtopic.php?t=2726
Библиотека кодирования : x264 core 157 r2935 545de2f
Настройки программы : cabac=1 / ref=5 / deblock=1:-3:-3 / analyse=0x3:0x133 / me=umh / subme=10 / psy=1 / psy_rd=1.00:0.00 / mixed_ref=1 / me_range=32 / chroma_me=1 / trellis=2 / 8x8dct=1 / cqm=0 / deadzone=21,11 / fast_pskip=0 / chroma_qp_offset=-2 / threads=18 / lookahead_threads=4 / sliced_threads=0 / nr=0 / decimate=0 / interlaced=0 / bluray_compat=0 / constrained_intra=0 / bframes=16 / b_pyramid=2 / b_adapt=2 / b_bias=0 / direct=3 / weightb=1 / open_gop=0 / weightp=1 / keyint=240 / keyint_min=24 / scenecut=40 / intra_refresh=0 / rc_lookahead=60 / rc=crf / mbtree=0 / crf=18.0 / qcomp=0.60 / qpmin=0 / qpmax=69 / qpstep=4 / vbv_maxrate=62500 / vbv_bufsize=78125 / crf_max=0.0 / nal_hrd=none / filler=0 / ip_ratio=1.40 / pb_ratio=1.30 / aq=2:1.00
Default : Да
Forced : Нет
Цветовой диапазон : Limited
Основные цвета : BT.709
Характеристики трансфера : BT.709
Коэффициенты матрицы : BT.709
Аудио #1
Идентификатор : 2
Формат : AC-3
Формат/Информация : Audio Coding 3
Коммерческое название : Dolby Digital
Идентификатор кодека : A_AC3
Продолжительность : 1 ч. 22 м.
Вид битрейта : Постоянный
Битрейт : 192 Кбит/сек
Каналы : 2 канала
Channel layout : L R
Частота : 48,0 КГц
Частота кадров : 31,250 кадров/сек (1536 SPF)
Битовая глубина : 16 бит
Метод сжатия : С потерями
Размер потока : 114 Мбайт (2%)
Заголовок : Русский ПД (5-й канал СПБ)
Язык : Russian
ServiceKind/String : Complete Main
Default : Да
Forced : Нет
Аудио #2
Идентификатор : 3
Формат : AC-3
Формат/Информация : Audio Coding 3
Коммерческое название : Dolby Digital
Идентификатор кодека : A_AC3
Продолжительность : 1 ч. 22 м.
Вид битрейта : Постоянный
Битрейт : 384 Кбит/сек
Каналы : 2 канала
Channel layout : L R
Частота : 48,0 КГц
Частота кадров : 31,250 кадров/сек (1536 SPF)
Битовая глубина : 16 бит
Метод сжатия : С потерями
Размер потока : 228 Мбайт (4%)
Язык : English
ServiceKind/String : Complete Main
Default : Нет
Forced : Нет
Аудио #3
Идентификатор : 4
Формат : AC-3
Формат/Информация : Audio Coding 3
Коммерческое название : Dolby Digital
Идентификатор кодека : A_AC3
Продолжительность : 1 ч. 22 м.
Вид битрейта : Постоянный
Битрейт : 192 Кбит/сек
Каналы : 2 канала
Channel layout : L R
Частота : 48,0 КГц
Частота кадров : 31,250 кадров/сек (1536 SPF)
Битовая глубина : 16 бит
Метод сжатия : С потерями
Размер потока : 114 Мбайт (2%)
Заголовок : Comment
Язык : English
ServiceKind/String : Complete Main
Default : Нет
Forced : Нет
Текст #1
Идентификатор : 5
Формат : UTF-8
Идентификатор кодека : S_TEXT/UTF8
Идентификатор кодека/Информация : UTF-8 Plain Text
Default : Да
Forced : Нет
Текст #2
Идентификатор : 6
Формат : UTF-8
Идентификатор кодека : S_TEXT/UTF8
Идентификатор кодека/Информация : UTF-8 Plain Text
Язык : English
Default : Нет
Forced : Нет
Текст #3
Идентификатор : 7
Формат : VobSub
Режим смешивания : zlib
Идентификатор кодека : S_VOBSUB
Идентификатор кодека/Информация : Picture based subtitle format used on DVDs
Язык : French
Default : Нет
Forced : Нет
Меню
00:00:00.000 : :Chapter 1
00:11:21.973 : :Chapter 2
00:19:54.485 : :Chapter 3
00:29:53.292 : :Chapter 4
00:39:30.869 : :Chapter 5
00:50:25.314 : :Chapter 6
01:00:28.125 : :Chapter 7
01:10:46.534 : :Chapter 8
01:19:20.464 : :Chapter 9

Скриншоты

















Скринлист

Файл дополнительно залит на ОБЛАКО


Last edited by kosmoaelita2 on 2019-05-21 08:39; edited 2 times in total
[Profile] [PM]
Quick Reply

Name:

            
Heads necessary to send messages to enable JavaScript
Display posts:    
Reply to topic

Current time is: 18-Sep 08:04

All times are UTC + 3



You cannot post new topics in this forum
You can reply to topics in this forum
You cannot edit your posts in this forum
You cannot delete your posts in this forum
You cannot vote in polls in this forum
You cannot attach files in this forum
You cannot download files in this forum