Космический остров 1 (сериал) / Space Island One / Raumstation Unity (Колин Бакси, Рой Баттерсби, Дирк Кэмпбелл / Judy Loe, Angus MacInnes, Bruno Eyron) [1998, Space Island One, Фантастика. драма, VHSRip] (СТ : kosmoaelita-karlivanovich)

Reply to topic
 
Author Message

kosmoaelita2 ®

Gender: Male

Longevity: 6 years 7 months

Posts: 723

Post 15-May-2019 22:38

[Quote]

Космический остров 1 (сериал) / Space Island One / Raumstation Unity
Страна: Space Island One
Жанр: Фантастика. драма
Год выпуска: 1998
Продолжительность: x ~ 00:46:00
Перевод: Субтитры kosmoaelita-karlivanovich
Режиссер: Колин Бакси, Рой Баттерсби, Дирк Кэмпбелл / Judy Loe, Angus MacInnes, Bruno Eyron
В ролях:
Judy Loe ... Cmdr. Kathryn McTiernan 25 episodes, 1998
Angus MacInnes ... Lt. Cmdr. Walter B. Shannon 25 episodes, 1998
Bruno Eyron ... Dusan Kashkavian 25 episodes, 1998
Julia Bremermann ... Henrietta 'Harry' Eschenbach 25 episodes, 1998
Kourosh Asad ... Dr. Kaveh Homayuni 25 episodes, 1998
William Oliver ... Chief Science Officer Lyle Campbell / ... 25 episodes, 1998
Indra Ové ... Paula Hernandez 24 episodes, 1998
Sally Grace ... Control
Описание: [bДействие сериала происходит на борту космической станции Юнити, в центре внимания экипаж станции.
Лучшее научно-фантастическо ешоу, о котором вы только слышали... Предлагается откровенный разговор о том, что такое наука ради прибыли, и предельно реалистичный взгляд на жизнь в космосе, не исключая и проблему потери костной массы. Некоторые серии скучны, но в целом всё довольно необычно и даже забавно. А все персонажи с очень сложными характерами.]

https://en.wikipedia.org/wiki/Space_Island_One
Список серий:
1 Message from Keeler - Сообщение от Килера
2 All the News That Fits - Все новости, которые окажутся уместны
3 Quarantine - Карантин
4
5
6
Релиз

Качество видео: VHSRip
Формат: MKV
Видео: XviD, 1068 кбит/с, 352x256, 29.97 к/с
Аудио 2: Английский (MP3, 2 ch, 128 Кбит/с)
Субтитры : Русские ()
Работа над релизом:
Релиз kosmoaelita.
Видеоряд найден на твваулт.
Перевод на слух с англ. по заказу kosmoaelita - karlivanovich



Пример русского субт. перевода

Дополнительно

Отзывы

And the sets were on par with early Dr Who rather than anything high-tech like Bab5 or Star Trek, but damn, I loved those people, and I was SO ready for Season 2. Which never happened. If there were a DVD I'd buy it in about a second.
The little robots, the "roams", and their creator the Scots mechanical genius Lyle Campbell were great comic relief; the pilot Shannon and the station commander Kathryn McTiernan were a wonderfully tense pairing, the simply competent Brit and her over-the-hill Yank second-in-command and pilot. "Harry" Escherbach and her foil in the lab, Paula Hernandez were another study in subtle contrasts.
The show was very much character-driven ... but the plots were not bad either. As I say, I've been looking for DVD for about 8 years now.

MediaInfo

Общее
Уникальный идентификатор : 239499883293515597153848148084577513855 (0xB42DFFEBC394DEF1AADC4528D30FB17F)
Полное имя : F:\Downloads\0 НА ПЕРЕВОД\В ПРОЦЕССЕ\ГОТОВІ\Space Island One\Space Island One 1x01 1998.XviD.TVRip.kosmoaelita.mkv
Формат : Matroska
Версия формата : Version 4
Размер файла : 398 Мбайт
Продолжительность : 46 м. 18 с.
Общий поток : 1201 Кбит/сек
Название фильма : Space Island One 1x01 1998 / Релиз kosmoaelita.com
Дата кодирования : UTC 2019-05-16 20:48:38
Программа кодирования : mkvmerge v6.6.0 ('The Edge Of The In Between') built on Dec 1 2013 17:55:00
Библиотека кодирования : libebml v1.3.0 + libmatroska v1.4.1
Attachments : POSTER.jpg
Видео
Идентификатор : 1
Формат : MPEG-4 Visual
Профиль формата : Advanced Simple@L5
Настройки формата : BVOP1
Параметр BVOP формата : 1
Параметр QPel формата : Нет
Параметр GMC формата : Без точки перехода
Параметр матрицы формата : Default (MPEG)
Режим смешивания : Сжатый битовый поток
Идентификатор кодека : V_MS/VFW/FOURCC / XVID
Идентификатор кодека/Подсказка : XviD
Продолжительность : 46 м. 18 с.
Битрейт : 1049 Кбит/сек
Ширина : 352 пикселя
Высота : 256 пикселей
Соотношение сторон : 1,375
Режим частоты кадров : Постоянный
Частота кадров : 29,970 (30000/1001) кадров/сек
Цветовое пространство : YUV
Субдискретизация насыщенности : 4:2:0
Битовая глубина : 8 бит
Тип развёртки : Прогрессивная
Метод сжатия : С потерями
Бит/(Пиксели*Кадры) : 0.388
Размер потока : 347 Мбайт (87%)
Заголовок : http://kosmoaelita.com/viewtopic.php?t=2723
Библиотека кодирования : XviD 1.2.0.dev47 (UTC 2006-11-01)
Default : Да
Forced : Нет
Аудио
Идентификатор : 2
Формат : MPEG Audio
Версия формата : Version 1
Профиль формата : Layer 3
Настройки формата : Joint stereo / MS Stereo
Идентификатор кодека : A_MPEG/L3
Идентификатор кодека/Подсказка : MP3
Продолжительность : 46 м. 18 с.
Вид битрейта : Постоянный
Битрейт : 128 Кбит/сек
Каналы : 2 канала
Частота : 48,0 КГц
Частота кадров : 41,667 кадра/сек (1152 SPF)
Метод сжатия : С потерями
Размер потока : 42,4 Мбайт (11%)
Библиотека кодирования : LAME3.97
Настройки программы : -m j -V 4 -q 2 -lowpass 17 -b 128
Язык : English
Default : Да
Forced : Нет
Текст #1
Идентификатор : 3
Формат : UTF-8
Идентификатор кодека : S_TEXT/UTF8
Идентификатор кодека/Информация : UTF-8 Plain Text
Заголовок : Русский (kosmoaelita-karlivanovich) .srt - перевод на слух с англ.
Язык : Russian
Default : Да
Forced : Нет
Текст #2
Идентификатор : 4
Формат : VobSub
Режим смешивания : zlib
Идентификатор кодека : S_VOBSUB
Идентификатор кодека/Информация : Picture based subtitle format used on DVDs
Заголовок : Русский (kosmoaelita-karlivanovich) .VobSub - перевод на слух с англ.
Язык : Russian
Default : Нет
Forced : Нет

Пример субтитров

2
00:00:22,264 --> 00:00:24,681
"КОСМИЧЕСКИЙ ОСТРОВ - 1" s01e01
(Space Island One, 1998г)
3
00:00:25,216 --> 00:00:27,216
ДЖУДИ ЛОУ
4
00:00:28,593 --> 00:00:30,593
ИНДРА ОВЕ
5
00:00:33,104 --> 00:00:35,104
АНГУС МАКИННЕС
6
00:00:36,884 --> 00:00:38,884
БРУНО ЭЙРОН
7
00:00:40,361 --> 00:00:42,361
ДЖУЛИЯ БРЕМЕРМАНН
8
00:00:47,667 --> 00:00:50,259
СООБЩЕНИЕ ОТ КИЛЕРА
9
00:00:53,299 --> 00:00:56,011
Перевод karlivanovich
для сайта kosmoaelita.com
10
00:00:59,981 --> 00:01:02,422
- Всё готово?
- Все системы работают нормально.
----------------
553
00:45:16,960 --> 00:45:21,637
Это вы там вдвоём оказались
и отлично справились.
554
00:45:21,943 --> 00:45:24,613
Мы все очень рады, что
вы обе к нам вернулись.
555
00:45:30,242 --> 00:45:34,746
Дай мне время, Дусан,
и я всё выясню.
556
00:45:34,823 --> 00:45:37,370
Что выяснишь?
557
00:45:38,517 --> 00:45:41,624
Кто ты такой, и где
у тебя кнопка.

Скриншоты



















Скринлист



Last edited by kosmoaelita2 on Today 10:55; edited 5 times in total
[Profile] [PM]

kosmoaelita2 ®

Gender: Male

Longevity: 6 years 7 months

Posts: 723

Post 19-May-2019 12:13 (after 3 days)

[Quote]

Добавлена вторая серия
[Profile] [PM]

k-center

Gender: Male

Longevity: 5 years 11 months

Posts: 181

Location: Украина

Post 20-May-2019 19:10 (after 1 day 6 hours)

[Quote]

Ссылка на облако не арбайт(((
[Profile] [PM]

Трамвай-фильм

Gender: Male

Longevity: 4 years 9 months

Posts: 1454

Location: Россия

Post 20-May-2019 19:11 (after 1 minute)

[Quote]

22096Ссылка на облако не арбайт(((
ссылки и нет, там шаблон просто вставлен
[Profile] [PM]

kosmoaelita2 ®

Gender: Male

Longevity: 6 years 7 months

Posts: 723

Post Today 10:54 (after 5 days)

[Quote]

Добавлена третья серия
[Profile] [PM]
Display posts:    
Reply to topic

Current time is: 26-May 10:55

All times are UTC + 3



You cannot post new topics in this forum
You cannot reply to topics in this forum
You cannot edit your posts in this forum
You cannot delete your posts in this forum
You cannot vote in polls in this forum
You cannot attach files in this forum
You cannot download files in this forum