Дик Дигит / Dick Digit (Лу Шаймер) [1967, США, фантастика, VHSRip] [пилотная серия] (АО : Трамвай-фильм)

Reply to topic
DL-List and Torrent activity
Size:  44 MB   |    Registered:  12 days   |    Completed:  3 times

Seeders:

Username ULR UL DL UL speed DL speed
pompilius 2.5 115431863110 MB 0- 0- 0-
shows data only for the current session
 
   
 
 
 
Author Message

Трамвай-фильм ®

Gender: Male

Longevity: 4 years 9 months

Posts: 1454

Location: Россия

Post 13-May-2019 19:44

[Quote]

Дик Дигит / Dick Digit / пилотная серия
Страна: США
Жанр: фантастика
Год выпуска: 1967
Продолжительность: 00:07:59
Перевод: Авторский (одноголосый) Трамвай-фильм
Режиссер: Лу Шаймер
Описание: Джестер - цирковой мастер перевоплощения выступает со своим напарником, птицей Маку, до тех пор пока ему на голову не сваливается крошечный человек в настоящем звездолете, размером с его марионетку Дика Дигита.
Доп. информация: Пилотная серия мультсериала так и не удивившего свет, идея заимствована от персонажа детских книг 1940-х годов Дигита Дика, маленького человечка.

Качество видео: VHSRip
Формат видео: AVI
Видео: Xvid, 560x480, 29fps, 619 kbps
Аудио: MP3, 44100Hz, stereo, 128 kbps

MediaInfo

General
Complete name : Dick.Digit.1967.avi
Format : AVI
Format/Info : Audio Video Interleave
File size : 43.7 MiB
Duration : 7 min 58 s
Overall bit rate : 765 kb/s
Video
ID : 0
Format : MPEG-4 Visual
Format profile : Simple@L3
Format settings, BVOP : No
Format settings, QPel : No
Format settings, GMC : No warppoints
Format settings, Matrix : Default (H.263)
Codec ID : XVID
Codec ID/Hint : XviD
Duration : 7 min 58 s
Bit rate : 619 kb/s
Width : 560 pixels
Height : 480 pixels
Display aspect ratio : 1.167
Frame rate : 29.970 (30000/1001) FPS
Original frame rate : 29.000 FPS
Color space : YUV
Chroma subsampling : 4:2:0
Bit depth : 8 bits
Scan type : Progressive
Compression mode : Lossy
Bits/(Pixel*Frame) : 0.077
Stream size : 35.3 MiB (81%)
Writing library : XviD 1.2.1 (UTC 2008-12-04)
Audio
ID : 1
Format : MPEG Audio
Format version : Version 1
Format profile : Layer 3
Format settings : Joint stereo / MS Stereo
Codec ID : 55
Codec ID/Hint : MP3
Duration : 7 min 58 s
Bit rate mode : Constant
Bit rate : 128 kb/s
Channel(s) : 2 channels
Sampling rate : 44.1 kHz
Compression mode : Lossy
Stream size : 7.30 MiB (17%)
Alignment : Aligned on interleaves
Interleave, duration : 26 ms (0.78 video frame)
Writing library : LAME3.98.2

Скриншоты




Файл дополнительно залит на ОБЛАКО
Dick.Digit.1967.avi.torrent
Torrent: Registered [ 2019-05-13 19:44 ]

Download .torrent

Download

14 KB

Status: checked
Completed: 3 times
Size: 44 MB
 
[Profile] [PM]
Quick Reply

Name:

            
Heads necessary to send messages to enable JavaScript
Display posts:    
Reply to topic

Current time is: 26-May 10:25

All times are UTC + 3



You can post new topics in this forum
You can reply to topics in this forum
You can edit your posts in this forum
You cannot delete your posts in this forum
You cannot vote in polls in this forum
You can attach files in this forum
You can download files in this forum