Суперзверь / Superbeast (Джордж Шенк / George Schenck) [1972, США, Филиппины, ужасы, фантастика, BDRip-1080p] ПД (НТВ+)

Reply to topic
 
Author Message

Guest

Gender: Unknown

Longevity: 51 year

Post 12-May-2019 14:37

[Quote]

Суперзверь / Superbeast
Страна: США, Филиппины, A & S Productions, MGM
Жанр: ужасы, фантастика
Год выпуска: 1972
Продолжительность: 01:33:06
Перевод: Профессиональный (двухголосый) НТВ+
Режиссер: Джордж Шенк / George Schenck
В ролях:
Antoinette Bower ... Dr. Alix Pardee
Craig Littler ... Dr. Bill Fleming
Harry Lauter ... Stewart Victor
Vic Diaz ... Mondo Diaz
Jose Romulo ... Vigo
John Garwood ... Ray Cleaver
Manny Ojeda ... Dr. Raul Rojas (as Manny Oheda)
Bruno Punzalan ... Datu
Alex Flores ... Sloco
Roderick Paulate ... Pepe
Ricardo Santos ... Benny, a subject
Nanita ... Lupe, the servant
Описание: Мужчина и женщина прилетают на небольшой остов в архипелаге Филиппин, где среди джунглей находят засекреченную лабораторию и попадают в плен к сумасшедшему профессору-генетику, одержимому идеей создания сверхчеловека.
Качество видео: BDRip-1080p
Формат: MKV
Видео: x264, 9697 кбит/с, 1920x1040, 23.976 к/с
Аудио 1: Русский ПД (AC3, 2 ch, 192 Кбит/с)
Аудио 2: Английский (AC3, 2 ch, 384 Кбит/с)
Субтитры : Английские
Работа над релизом:
Видеоряд найден на rarbg2018.org
Синхронизация русской дорожки - kosmoaelita



Пример русского перевода

Дополнительно

слоган «Half-man, half-monster ripping helpless victims to shreds in his mad hunger!»
бюджет $275 000
Also Known As (AKA)
(original title) Superbeast
Japan Kemono ni natta otoko
Sweden Dr. Skräck
Turkey (Turkish title) Canavar

Отзывы

MediaInfo

Общее
Уникальный идентификатор : 209507920874806842727568544328071390395 (0x9D9DC201CBDDFA57813273D966FE24BB)
Полное имя : N:\BD-DISC\Superbeast.1972.1080p.BluRay.x264-SADPANDA[rarbg]\Superbeast 1972.x264.BDRip.1080p.Rus.kosmoaelita.mkv
Формат : Matroska
Версия формата : Version 4
Размер файла : 6,68 Гбайт
Продолжительность : 1 ч. 33 м.
Общий поток : 10,3 Мбит/сек
Название фильма : Superbeast / 1972 / kosmoaelita
Дата кодирования : UTC 2019-05-12 11:24:53
Программа кодирования : mkvmerge v6.6.0 ('The Edge Of The In Between') built on Dec 1 2013 17:55:00
Библиотека кодирования : libebml v1.3.0 + libmatroska v1.4.1
Attachments : poster.jpg
Видео
Идентификатор : 1
Формат : AVC
Формат/Информация : Advanced Video Codec
Профиль формата : High@L4.1
Настройки формата : CABAC / 4 Ref Frames
Параметр CABAC формата : Да
Параметр RefFrames формата : 4 кадра
Идентификатор кодека : V_MPEG4/ISO/AVC
Продолжительность : 1 ч. 33 м.
Битрейт : 9697 Кбит/сек
Ширина : 1920 пикселей
Высота : 1040 пикселей
Соотношение сторон : 1,85:1
Режим частоты кадров : Постоянный
Частота кадров : 23,976 (24000/1001) кадра/сек
Цветовое пространство : YUV
Субдискретизация насыщенности : 4:2:0
Битовая глубина : 8 бит
Тип развёртки : Прогрессивная
Бит/(Пиксели*Кадры) : 0.203
Размер потока : 6,18 Гбайт (92%)
Библиотека кодирования : x264 core 155 r2901 7d0ff22
Настройки программы : cabac=1 / ref=4 / deblock=1:-3:-3 / analyse=0x3:0x113 / me=umh / subme=8 / psy=1 / psy_rd=1.00:0.25 / mixed_ref=1 / me_range=24 / chroma_me=1 / trellis=1 / 8x8dct=1 / cqm=0 / deadzone=21,11 / fast_pskip=1 / chroma_qp_offset=-4 / threads=30 / lookahead_threads=5 / sliced_threads=0 / nr=0 / decimate=1 / interlaced=0 / bluray_compat=0 / constrained_intra=0 / bframes=3 / b_pyramid=2 / b_adapt=1 / b_bias=0 / direct=3 / weightb=1 / open_gop=0 / weightp=2 / keyint=240 / keyint_min=24 / scenecut=40 / intra_refresh=0 / rc_lookahead=50 / rc=2pass / mbtree=1 / bitrate=9697 / ratetol=1.0 / qcomp=0.60 / qpmin=0 / qpmax=69 / qpstep=4 / cplxblur=20.0 / qblur=0.5 / ip_ratio=1.40 / aq=1:0.75
Default : Да
Forced : Нет
Аудио #1
Идентификатор : 2
Формат : AC-3
Формат/Информация : Audio Coding 3
Коммерческое название : Dolby Digital
Идентификатор кодека : A_AC3
Продолжительность : 1 ч. 33 м.
Вид битрейта : Постоянный
Битрейт : 192 Кбит/сек
Каналы : 2 канала
Channel layout : L R
Частота : 48,0 КГц
Частота кадров : 31,250 кадров/сек (1536 SPF)
Битовая глубина : 16 бит
Метод сжатия : С потерями
Размер потока : 128 Мбайт (2%)
Заголовок : Русский ПД (НТВ+)
Язык : Russian
ServiceKind/String : Complete Main
Default : Да
Forced : Нет
Аудио #2
Идентификатор : 3
Формат : AC-3
Формат/Информация : Audio Coding 3
Коммерческое название : Dolby Digital
Идентификатор кодека : A_AC3
Продолжительность : 1 ч. 33 м.
Вид битрейта : Постоянный
Битрейт : 384 Кбит/сек
Каналы : 2 канала
Channel layout : L R
Частота : 48,0 КГц
Частота кадров : 31,250 кадров/сек (1536 SPF)
Битовая глубина : 16 бит
Метод сжатия : С потерями
Размер потока : 256 Мбайт (4%)
Язык : English
ServiceKind/String : Complete Main
Default : Нет
Forced : Нет
Текст #1
Идентификатор : 4
Формат : UTF-8
Идентификатор кодека : S_TEXT/UTF8
Идентификатор кодека/Информация : UTF-8 Plain Text
Заголовок : ФОРС
Default : Да
Forced : Нет
Текст #2
Идентификатор : 5
Формат : VobSub
Режим смешивания : zlib
Идентификатор кодека : S_VOBSUB
Идентификатор кодека/Информация : Picture based subtitle format used on DVDs
Язык : English
Default : Нет
Forced : Нет
Меню
00:00:00.000 : en:00:00:00.000
00:08:11.491 : en:00:08:11.491
00:15:07.949 : en:00:15:07.949
00:23:19.773 : en:00:23:19.773
00:30:40.505 : en:00:30:40.505
00:36:53.962 : en:00:36:53.962
00:46:11.769 : en:00:46:11.769
00:53:06.683 : en:00:53:06.683
01:04:37.791 : en:01:04:37.791
01:11:45.051 : en:01:11:45.051
01:18:32.374 : en:01:18:32.374
01:25:56.568 : en:01:25:56.568

Скриншоты












Скринлист

Файл дополнительно залит на ОБЛАКО


Last edited by on 2019-05-12 15:24; edited 1 time in total
[Profile] [PM]

Guest

Gender: Unknown

Longevity: 51 year

Post 12-May-2019 14:49 (after 12 minutes)

[Quote]

BD без реставрации
[Profile] [PM]
Display posts:    
Reply to topic

Current time is: 29-Jul 10:47

All times are UTC + 3



You cannot post new topics in this forum
You cannot reply to topics in this forum
You cannot edit your posts in this forum
You cannot delete your posts in this forum
You cannot vote in polls in this forum
You cannot attach files in this forum
You cannot download files in this forum