Остров-тюрьма / Terminal Island (Стефани Ротмен / Stephanie Rothman) [1973 г., Фантастика, боевик, триллер, драма, DVDRip-AVC] АО (А.Дольский)

Reply to topic
 
Author Message

admin ®

Gender: Male

Longevity: 7 years 2 months

Posts: 4721

Post 17-Oct-2012 15:49

[Quote]

Остров-тюрьма / Terminal Island
Год выпуска: 1973
Страна: США, Dimension Pictures Inc.
Жанр: Фантастика, боевик, триллер, драма
Продолжительность: 01:27:56
Перевод: Авторский (одноголосый) А.Дольский
Режиссер: Стефани Ротмен / Stephanie Rothman
В ролях: Дон Маршалл, Филлис Дэвис, Эна Хартман, Марта Кристен, Барбара Ли, Рэнди Бун, Шон Кенни, Том Селлек, Роджер Э. Мосли, Geoffrey Deuel
Описание: Недалекое будущее. Всех преступников теперь не держат в тюрьмах, а отвозят на отдаленный необитаемый остров, лежащий в стороне от морских путей. Там оказываются самые отъявленные убийцы, террористы, маньяки и коммунисты. Несчастным не остается ничего другого, как приспосабливаться к таким условиям жизни. На острове образуется своеобразная колония заключенных под управлением жестокого Бобби. Однажды на остров поступает преступница по имени Кармен. Образ жизни обитателей колонии, построенный на беспрекословном подчинении женщин мужчинам, приходится ей не по вкусу. Кармен решает уйти из колонии и попытаться прожить самостоятельно. Постепенно к ней присоединяются такие же недовольные своеобразным царствованием Бобби. Естественно, рано или поздно между двумя группами людей должна вспыхнуть война…Снят по книге Ричарда Херли "Федеральная колония". Также как и Побег невозможен(1994) и Тюрьма в раю(1990)Качество: DVDRip-AVC
Формат: MKV
Видео: x264, 1681 Кбит/с, 720х480@853x480, 23.976 к/с, crf=22
Аудио 1: Русский (AC3, 2 ch, 192 Кбит/с)
Аудио 2: Английский (AC3, 2 ch, 192 Кбит/с)


Трейлер:

Релиз

Рип с ДВД5 - sasha20072007, качество рипа - crf=22
Озвучка - А. Дольский
Сравнение с исходником ДВД9
Для Украины: рип и оригинальный ДВД дополнительно залиты в файлохранилище
Для удаления и добавления дорожек в mkv используйте бесплатную mkvmerge GUI 5.80

Дополнительно

Слоган: «Where we dump our human garbage.»
Другие названия:
Knuckle-Men UK
L'île du non-retour Canada (imdb display title) (French title)
La isla de los condenados Peru (imdb display title)
Le dernier pénitencier France
Männer wie Tiger West Germany (trailer title)
Männer wie die Tiger West Germany
Pirunsaari U.S.A. Finland
To nisi ton katharmaton Greece (reissue title)
To teleftaio nisi tis Kolaseos Greece (transliterated ISO-LATIN-1 title)
To teleftaio nisi ton zontanon nekron Greece (reissue title)

Рецензия

Недалекое будущее. Всех преступников теперь не держат в тюрьмах, а отвозят на отдаленный необитаемый остров, лежащий в стороне от морских путей. Там оказываются самые отъявленные убийцы, террористы, маньяки и коммунисты. Несчастным не остается ничего другого, как приспосабливаться к таким условиям жизни. На острове образуется своеобразная колония заключенных под управлением жестокого Бобби. Однажды на остров поступает преступница по имени Кармен. Образ жизни обитателей колонии, построенный на беспрекословном подчинении женщин мужчинам, приходится ей не по вкусу. Кармен решает уйти из колонии и попытаться прожить самостоятельно. Постепенно к ней присоединяются такие же недовольные своеобразным царствованием Бобби. Естественно, рано или поздно между двумя группами людей должна вспыхнуть война…
Один из многочисленных фильмов серии «женщины в тюрьме», которые были популярны в семидесятых годах. Красной линией проходит тема борьбы женщин за свои права. Сюжет этих картин таков. Во-первых, наивная молодая женщина оказывается в тюрьме строгого режима, будучи обвиненной в преступлении, совершенном другим или будучи подставленной. Во-вторых, в тюрьме заправляет жестокая матерая преступница, как правило, лесбиянка. В-третьих, женщину насилует охранник, и издеваются заключенные. В-четвертых, она принимает душ и использует любой момент, чтобы обнажить свои прелести. В-пятых, женщина знакомится с бывалой заключенной, которая учит ее, как постоять за себя. Наконец, героиня убегает из тюрьмы, освобождает заключенных, убивает охранников и разрушает само исправительное учреждение. Один из первых фильмов совсем молодого Тома Селекка. Когда десять лет спустя он стал звездой телесериала «Magnum PI» (кстати, вместе с ним снимался и Роджер Мосли) фильм выпустили в прокат еще раз, чтобы использовать его имя. Аналогичным образом поступили с ранней картиной Леонардо Ди Каприо («Зубастики-3»), после его оглушительного успеха в картине «Титаник» (1997). Стефани Роттман работала у Роджера Кормана, а это ее последний фильм, после чего она ушла с режиссерского поприща.
horror-movies.ru

MediaInfo

Общее
Уникальный идентификатор : 191793971075052075508713602097081857190 (0x904A2CDA360F3F649FDFF75362D9B4A6)
Полное имя : E:\Ostrov.tjurma.1973.x264.DVDRip.(AVC).SASHA20072007.mkv
Формат : Matroska
Версия формата : Version 2
Размер файла : 1,45 Гбайт
Продолжительность : 1 ч. 27 м.
Общий поток : 2368 Кбит/сек
Название фильма : Остров-тюрьма / Terminal Island / 1973 / rip by sasha20072007
Дата кодирования : UTC 2012-05-06 10:20:06
Программа кодирования : mkvmerge v5.5.0 ('Healer') built on Apr 24 2012 23:47:03
Библиотека кодирования : libebml v1.2.3 + libmatroska v1.3.0
Attachment : Yes / Yes / Yes
Видео
Идентификатор : 1
Формат : AVC
Формат/Информация : Advanced Video Codec
Профиль формата : High@L4.1
Параметр CABAC формата : Да
Параметр ReFrames формата : 10 кадров
Идентификатор кодека : V_MPEG4/ISO/AVC
Продолжительность : 1 ч. 27 м.
Битрейт : 1681 Кбит/сек
Ширина : 720 пикселей
Высота : 480 пикселей
Соотношение сторон : 16:9
Режим частоты кадров : Постоянный
Частота кадров : 23,976 кадра/сек
Стандарт вещания : NTSC
Цветовое пространство : YUV
Субдискретизация насыщенности : 4:2:0
Битовая глубина : 8 бит
Тип развёртки : Прогрессивная
Бит/(Пиксели*Кадры) : 0.203
Размер потока : 1,03 Гбайт (71%)
Библиотека кодирования : x264 core 120 r2164 da19765
Настройки программы : cabac=1 / ref=10 / deblock=1:-2:-2 / analyse=0x3:0x133 / me=umh / subme=11 / psy=1 / psy_rd=1.00:0.20 / mixed_ref=1 / me_range=24 / chroma_me=1 / trellis=2 / 8x8dct=1 / cqm=0 / deadzone=6,6 / fast_pskip=1 / chroma_qp_offset=-3 / threads=12 / sliced_threads=0 / nr=0 / decimate=0 / interlaced=0 / bluray_compat=0 / constrained_intra=0 / bframes=10 / b_pyramid=2 / b_adapt=2 / b_bias=0 / direct=3 / weightb=1 / open_gop=0 / weightp=2 / keyint=220 / keyint_min=22 / scenecut=40 / intra_refresh=0 / rc_lookahead=60 / rc=crf / mbtree=1 / crf=22.0 / qcomp=0.80 / qpmin=0 / qpmax=69 / qpstep=4 / vbv_maxrate=17500 / vbv_bufsize=14000 / crf_max=0.0 / nal_hrd=none / ip_ratio=1.10 / aq=1:0.60
Default : Да
Forced : Нет
Аудио #1
Идентификатор : 2
Формат : AC-3
Формат/Информация : Audio Coding 3
Расширение режима : CM (complete main)
Параметр Endianness формата : Big
Идентификатор кодека : A_AC3
Продолжительность : 1 ч. 27 м.
Вид битрейта : Постоянный
Битрейт : 192 Кбит/сек
Каналы : 2 канала
Расположение каналов : Front: L R
Частота : 48,0 КГц
Битовая глубина : 16 бит
Метод сжатия : С потерями
Размер потока : 121 Мбайт (8%)
Заголовок : Русский (Андрей Дольский)
Язык : Russian
Default : Да
Forced : Да
Аудио #2
Идентификатор : 3
Формат : AC-3
Формат/Информация : Audio Coding 3
Расширение режима : CM (complete main)
Параметр Endianness формата : Big
Идентификатор кодека : A_AC3
Продолжительность : 1 ч. 27 м.
Вид битрейта : Постоянный
Битрейт : 192 Кбит/сек
Каналы : 2 канала
Расположение каналов : Front: L R
Частота : 48,0 КГц
Битовая глубина : 16 бит
Метод сжатия : С потерями
Размер потока : 121 Мбайт (8%)
Заголовок : Eng
Язык : English
Default : Нет
Forced : Нет
Аудио #3
Идентификатор : 4
Формат : AC-3
Формат/Информация : Audio Coding 3
Расширение режима : CM (complete main)
Параметр Endianness формата : Big
Идентификатор кодека : A_AC3
Продолжительность : 1 ч. 27 м.
Вид битрейта : Постоянный
Битрейт : 256 Кбит/сек
Каналы : 2 канала
Расположение каналов : Front: L R
Частота : 48,0 КГц
Битовая глубина : 16 бит
Метод сжатия : С потерями
Размер потока : 161 Мбайт (11%)
Заголовок : Eng (comment)
Язык : English
Default : Нет
Forced : Нет
Меню
00:00:00.000 : :Chapter 01
00:06:33.000 : :Chapter 02
00:10:27.500 : :Chapter 03
00:17:23.000 : :Chapter 04
00:22:29.000 : :Chapter 05
00:30:17.000 : :Chapter 06
00:39:23.000 : :Chapter 07
00:46:36.500 : :Chapter 08
00:50:17.000 : :Chapter 09
00:56:25.000 : :Chapter 10
01:01:25.000 : :Chapter 11
01:09:39.500 : :Chapter 12
01:12:19.500 : :Chapter 13
01:23:49.500 : :Chapter 14

Скриншоты



cd Рип дополнительно залит на mail.ru cd2
[Profile] [PM]
Quick Reply

Name:

            
Heads necessary to send messages to enable JavaScript
Display posts:    
Reply to topic

Current time is: 22-Nov 10:09

All times are UTC + 3



You cannot post new topics in this forum
You can reply to topics in this forum
You cannot edit your posts in this forum
You cannot delete your posts in this forum
You cannot vote in polls in this forum
You cannot attach files in this forum
You cannot download files in this forum