Галактика динозавров / Galaxy of the Dinosaurs (Лэнс Рендас (Джей Эр Букволтер)) [1992, США, фанатстика, DVDRip] АО (Трамвай-фильм)

Reply to topic
DL-List and Torrent activity
Size:  429 MB   |    Registered:  3 months 11 days   |    Completed:  4 times

Seeder not seen: 41 minute

 
   
 
 
 
Author Message

Трамвай-фильм ®

Gender: Male

Longevity: 5 years

Posts: 1493

Location: Россия

Post 09-May-2019 22:53

[Quote]

Галактика динозавров / Galaxy of the Dinosaurs
Страна: США
Жанр: фантастика
Год выпуска: 1992
Продолжительность: 01:02:41
Перевод: Авторский (одноголосый) Трамвай-фильм
Режиссер: Лэнс Рендас (Джей Эр Букволтер)
В ролях: Джеймс Блэк, Кристина Моррисон, Том Гувер, Билл Моррисон, Скотт Эмерман, Джеймс Ли Эдвардс, Джозеф Э. Доу
Описание: Команда инопланетных оболдуев решает высадиться на планете Земля, что бы зайти в МакДональдс, однако внезапно выясняется, что в компьютер космического челнока внесены не те координаты, и высадка за фастфудом превращается в катастрофу покрытую мрачной тайной.
Доп. информация: Внимание! Этот фильм снят за 1250 $! Просмотр его рекомендуем только для любителей малобюджетного трэша, иначе есть шанс повредить своё психическое здоровье. Хотя, к слову, сюжет и задумка довольно сносные.


Качество видео: DVDRip
Формат видео: MKV
Видео: MPEG4 Video (H264), 640x400, 29.97 fps, 697 kb/s
Аудио 1: AAC, 44100Hz, stereo, 128 kb/s (русский, одноголосый)
Аудио 2: AAC, 44100Hz, stereo, 128 kb/s (английский)

MediaInfo

General
Complete name : Galaxy Of The Dinosaurs.mkv
Format : Matroska
Format version : Version 4 / Version 2
File size : 429 MiB
Duration : 1 h 2 min
Overall bit rate : 956 kb/s
Encoded date : UTC 2019-05-09 19:02:17
Writing application : mkvmerge v7.1.0 ('Good Love') 32bit built on Jul 27 2014 12:59:18
Writing library : libebml v1.3.0 + libmatroska v1.4.1
Video
ID : 1
Format : AVC
Format/Info : Advanced Video Codec
Format profile : High@L3
Format settings : CABAC / 4 Ref Frames
Format settings, CABAC : Yes
Format settings, ReFrames : 4 frames
Codec ID : V_MPEG4/ISO/AVC
Duration : 1 h 2 min
Bit rate : 697 kb/s
Width : 640 pixels
Height : 400 pixels
Display aspect ratio : 16:10
Frame rate mode : Constant
Frame rate : 29.970 (29970/1000) FPS
Color space : YUV
Chroma subsampling : 4:2:0
Bit depth : 8 bits
Scan type : Progressive
Bits/(Pixel*Frame) : 0.091
Stream size : 313 MiB (73%)
Writing library : x264 core 140 r2377M 1ca7bb9
Default : Yes
Forced : No
Audio #1
ID : 2
Format : AAC
Format/Info : Advanced Audio Codec
Format profile : LC
Codec ID : A_AAC-2
Duration : 1 h 2 min
Bit rate : 128 kb/s
Channel(s) : 2 channels
Channel positions : Front: L R
Sampling rate : 44.1 kHz
Frame rate : 43.066 FPS (1024 SPF)
Compression mode : Lossy
Delay relative to video : -2 ms
Stream size : 57.4 MiB (13%)
Title : Tramvai.film.rus
Language : Russian
Default : Yes
Forced : No
Audio #2
ID : 3
Format : AAC
Format/Info : Advanced Audio Codec
Format profile : LC
Codec ID : A_AAC-2
Duration : 1 h 2 min
Bit rate : 128 kb/s
Channel(s) : 2 channels
Channel positions : Front: L R
Sampling rate : 44.1 kHz
Frame rate : 43.066 FPS (1024 SPF)
Compression mode : Lossy
Delay relative to video : -2 ms
Stream size : 57.4 MiB (13%)
Title : original
Language : English
Default : No
Forced : No

Скриншоты





cd Рип дополнительно залит на mail.ru cd2
Galaxy-Of-The-Dinosaurs-.torrent
Torrent: Registered [ 2019-05-09 22:53 ]

Download .torrent

Download

17 KB

Status: checked
Completed: 4 times
Size: 429 MB
 


Last edited by Трамвай-фильм on 2019-05-09 23:10; edited 2 times in total
[Profile] [PM]
Quick Reply

Name:

            
Heads necessary to send messages to enable JavaScript
Display posts:    
Reply to topic

Current time is: 21-Aug 02:09

All times are UTC + 3



You can post new topics in this forum
You can reply to topics in this forum
You cannot edit your posts in this forum
You cannot delete your posts in this forum
You cannot vote in polls in this forum
You cannot attach files in this forum
You can download files in this forum