Не с этой планеты / Not of This Earth (Роджер Корман / Roger Corman) [1957 г., Фантастика, ужасы, DVDRip] ЛО (Андрей Бессонов) (WideScreen)

Reply to topic
 
Author Message

marsel84 ®

Gender: Male

Longevity: 2 years 1 month

Posts: 73

Post 05-May-2019 19:36

[Quote]

Не с этой планеты / Not of This Earth
Страна: США, Los Altos Productions
Жанр: Фантастика, ужасы
Год выпуска: 1957
Продолжительность: 01:07:13
Перевод: Любительский (одноголосый) Андрей Бессонов
Режиссер: Роджер Корман / Roger Corman
В ролях: Пол Бирч, Беверли Гарлэнд, Морган Джонс, Уильям Рорик, Джонатан Хэйз, Дик Миллер, Анна Ли Кэрролл, Пэт Флинн, Барбара Борер, Рой Энджел
Описание: Инопланетянин с планеты Дована, находящейся в другой Галактике, послан на Землю посредством высокотехнологичного транспортера. Здесь он начинает терроризировать жителей южной Калифорнии в попытках достать кровь для своей умирающей после опустошающей ядерной войны расы…
Дополнительная информация: Это широкоэкранная версия фильма. Сравнение с полноэкранной версией тут

Качество видео: DVDRip
Формат видео: MKV
Видео: x264, 1980 kb/s, 718x480 (888x480), 23.976fps
Аудио: Русский Андрей Бессонов (AC3, 2 ch, 192 Кбит/с)
Аудио 2: Английский (AC3, 2 ch, 192 Кбит/с)
Аудио 3: Английский комментарии режиссера (AC3, 2 ch, 192 Кбит/с)

MediaInfo

Общее
Уникальный идентификатор : 275345152787565739386589120889938721120 (0xCF258C279E959FB9D3D26CD998373960)
Полное имя : Not.of.This.Earth.1957.DVDRip.mkv
Формат : Matroska
Версия формата : Version 4 / Version 2
Размер файла : 1,20 Гбайт
Продолжительность : 1 ч. 7 м.
Общий поток : 2559 Кбит/сек
Дата кодирования : UTC 2019-02-05 22:55:20
Программа кодирования : mkvmerge v25.0.0 ('Prog Noir') 64-bit
Библиотека кодирования : libebml v1.3.6 + libmatroska v1.4.9
Видео
Идентификатор : 1
Формат : AVC
Формат/Информация : Advanced Video Codec
Профиль формата : High@L3.1
Настройки формата : CABAC / 7 Ref Frames
Параметр CABAC формата : Да
Параметр RefFrames формата : 7 кадров
Идентификатор кодека : V_MPEG4/ISO/AVC
Продолжительность : 1 ч. 7 м.
Битрейт : 1980 Кбит/сек
Ширина : 718 пикселей
Высота : 480 пикселей
Соотношение сторон : 1,85:1
Соотношение сторон в оригинале : 4:3
Режим частоты кадров : Постоянный
Частота кадров : 23,976 (24000/1001) кадра/сек
Цветовое пространство : YUV
Субдискретизация насыщенности : 4:2:0
Битовая глубина : 8 бит
Тип развёртки : Прогрессивная
Бит/(Пиксели*Кадры) : 0.240
Размер потока : 952 Мбайт (77%)
Библиотека кодирования : x264 core 133 r2334 a3ac64b
Настройки программы : cabac=1 / ref=7 / deblock=1:-3:-3 / analyse=0x3:0x133 / me=umh / subme=9 / psy=1 / psy_rd=1.00:0.00 / mixed_ref=1 / me_range=24 / chroma_me=1 / trellis=2 / 8x8dct=1 / cqm=0 / deadzone=21,11 / fast_pskip=1 / chroma_qp_offset=-2 / threads=3 / lookahead_threads=1 / sliced_threads=0 / nr=0 / decimate=1 / interlaced=0 / bluray_compat=0 / constrained_intra=0 / bframes=5 / b_pyramid=2 / b_adapt=2 / b_bias=0 / direct=1 / weightb=1 / open_gop=0 / weightp=2 / keyint=240 / keyint_min=23 / scenecut=40 / intra_refresh=0 / rc_lookahead=60 / rc=2pass / mbtree=1 / bitrate=1980 / ratetol=1.0 / qcomp=0.60 / qpmin=0 / qpmax=69 / qpstep=4 / cplxblur=20.0 / qblur=0.5 / ip_ratio=1.40 / aq=1:1.00
Язык : English
Default : Да
Forced : Нет
Аудио #1
Идентификатор : 2
Формат : AC-3
Формат/Информация : Audio Coding 3
Идентификатор кодека : A_AC3
Продолжительность : 1 ч. 7 м.
Вид битрейта : Постоянный
Битрейт : 192 Кбит/сек
Каналы : 2 канала
Расположение каналов : Front: L R
Частота : 48,0 КГц
Частота кадров : 31,250 кадров/сек (1536 SPF)
Битовая глубина : 16 бит
Метод сжатия : С потерями
Размер потока : 92,3 Мбайт (8%)
Заголовок : VO Андрей Бессонов
Язык : Russian
ServiceKind/String : Complete Main
Default : Да
Forced : Нет
Аудио #2
Идентификатор : 3
Формат : AC-3
Формат/Информация : Audio Coding 3
Идентификатор кодека : A_AC3
Продолжительность : 1 ч. 7 м.
Вид битрейта : Постоянный
Битрейт : 192 Кбит/сек
Каналы : 2 канала
Расположение каналов : Front: L R
Частота : 48,0 КГц
Частота кадров : 31,250 кадров/сек (1536 SPF)
Битовая глубина : 16 бит
Метод сжатия : С потерями
Размер потока : 92,3 Мбайт (8%)
Заголовок : Original
Язык : English
ServiceKind/String : Complete Main
Default : Нет
Forced : Нет
Аудио #3
Идентификатор : 4
Формат : AC-3
Формат/Информация : Audio Coding 3
Идентификатор кодека : A_AC3
Продолжительность : 1 ч. 7 м.
Вид битрейта : Постоянный
Битрейт : 192 Кбит/сек
Каналы : 2 канала
Расположение каналов : Front: L R
Частота : 48,0 КГц
Частота кадров : 31,250 кадров/сек (1536 SPF)
Битовая глубина : 16 бит
Метод сжатия : С потерями
Размер потока : 92,3 Мбайт (8%)
Заголовок : Commentary
Язык : English
ServiceKind/String : Complete Main
Default : Нет
Forced : Нет

Скриншоты





[Profile] [PM]
Display posts:    
Reply to topic

Current time is: 28-Oct 23:08

All times are UTC + 3



You cannot post new topics in this forum
You cannot reply to topics in this forum
You cannot edit your posts in this forum
You cannot delete your posts in this forum
You cannot vote in polls in this forum
You cannot attach files in this forum
You cannot download files in this forum